Crown Heights (2017) WEB-DL 1080p Latino

724 vistas
1 estrella2 estrellas3 estrellas4 estrellas5 estrellas (1 votos, promedio: 3,00 de 5)
Cargando…

Información de Crown Heights (2017) WEB-DL 1080p Latino

Datos de la película

  • Calidad: WEBDL
  • Audio: Español Latino AC3 2.0 iTunes - Ingles AC3 5.1 iTunes
  • Subtitulos: Español Latino SRT
  • Resolución: 1916X796
  • Formato: MKV
  • Codec: H.264
  • Encoder: Dpelis
  • Mediainfo: Clic para Mostrar Datos Ver
  • Format                                   : Matroska
    Format version                           : Version 4 / Version 2
    File size                                : 3.62 GiB
    Duration                                 : 1 h 40 min
    Overall bit rate                         : 5 179 kb/s
    Movie name                               : dpeliculashdmega.org
    Encoded date                             : UTC 2017-11-14 08:28:32
    Writing application                      : mkvmerge v15.0.0 ('Duel with the Devil') 64-bit
    Writing library                          : libebml v1.3.5 + libmatroska v1.4.5

    Video
    ID                                       : 1
    Format                                   : AVC
    Format/Info                              : Advanced Video Codec
    Format profile                           : [email protected]
    Format settings                          : CABAC / 5 Ref Frames
    Format settings, CABAC                   : Yes
    Format settings, RefFrames               : 5 frames
    Codec ID                                 : V_MPEG4/ISO/AVC
    Duration                                 : 1 h 40 min
    Bit rate                                 : 4 601 kb/s
    Width                                    : 1 916 pixels
    Height                                   : 796 pixels
    Display aspect ratio                     : 2.40:1
    Frame rate mode                          : Constant
    Frame rate                               : 23.976 (23976/1000) FPS
    Color space                              : YUV
    Chroma subsampling                       : 4:2:0
    Bit depth                                : 8 bits
    Scan type                                : Progressive
    Bits/(Pixel*Frame)                       : 0.126
    Stream size                              : 3.21 GiB (89%)
    Title                                    : Crown Heights (2017) WEB-DL 1080p Latino
    Language                                 : English
    Default                                  : Yes
    Forced                                   : No
    Color range                              : Limited
    Color primaries                          : BT.709
    Transfer characteristics                 : BT.709
    Matrix coefficients                      : BT.709

    Audio #1
    ID                                       : 2
    Format                                   : AC-3
    Format/Info                              : Audio Coding 3
    Format settings, Endianness              : Big
    Codec ID                                 : A_AC3
    Duration                                 : 1 h 40 min
    Bit rate mode                            : Constant
    Bit rate                                 : 192 kb/s
    Channel(s)                               : 2 channels
    Channel positions                        : Front: L R
    Sampling rate                            : 48.0 kHz
    Frame rate                               : 31.250 FPS (1536 SPF)
    Bit depth                                : 16 bits
    Compression mode                         : Lossy
    Stream size                              : 137 MiB (4%)
    Title                                    : Latino-AC3
    Language                                 : Spanish
    Service kind                             : Complete Main
    Default                                  : Yes
    Forced                                   : No

    Audio #2
    ID                                       : 3
    Format                                   : AC-3
    Format/Info                              : Audio Coding 3
    Format settings, Endianness              : Big
    Codec ID                                 : A_AC3
    Duration                                 : 1 h 40 min
    Bit rate mode                            : Constant
    Bit rate                                 : 384 kb/s
    Channel(s)                               : 6 channels
    Channel positions                        : Front: L C R, Side: L R, LFE
    Sampling rate                            : 48.0 kHz
    Frame rate                               : 31.250 FPS (1536 SPF)
    Bit depth                                : 16 bits
    Compression mode                         : Lossy
    Stream size                              : 275 MiB (7%)
    Title                                    : Ingles-AC3
    Language                                 : English
    Service kind                             : Complete Main
    Default                                  : No
    Forced                                   : No

    Text
    ID                                       : 4
    Format                                   : UTF-8
    Codec ID                                 : S_TEXT/UTF8
    Codec ID/Info                            : UTF-8 Plain Text
    Duration                                 : 1 h 34 min
    Bit rate                                 : 59 b/s
    Count of elements                        : 960
    Stream size                              : 41.5 KiB (0%)
    Language                                 : Spanish
    Default                                  : No
    Forced                                   : No

    Menu
    00:00:00.000                             : en:Chapter 1
    00:09:02.000                             : en:Chapter 2
    00:15:09.000                             : en:Chapter 3
    00:22:11.000                             : en:Chapter 4
    00:26:12.000                             : en:Chapter 5
    00:29:43.000                             : en:Chapter 6
    00:34:10.000                             : en:Chapter 7
    00:40:59.000                             : en:Chapter 8
    00:47:07.000                             : en:Chapter 9
    00:51:36.000                             : en:Chapter 10
    00:59:29.000                             : en:Chapter 11
    01:04:28.000                             : en:Chapter 12
    01:12:42.000                             : en:Chapter 13
    01:20:17.000                             : en:Chapter 14
    01:25:50.000                             : en:Chapter 15
    01:32:43.000                             : en:Chapter 16

  • Peso: 3.62 GiB

Sinopsis

Cuando Colin Warner es condenado injustamente por asesinato, su mejor amigo Carl King dedica su vida a probar su inocencia.

Ficha técnica

  • Titulo original: Crown Heights
  • Fecha de lanzamiento: 25-08-2017 (United States of America)
  • Director: Matt Ruskin
  • Género: Drama
  • Puntuación: 3.0 1 votos
  • Duración:
    1 h 40 min

Video trailer de la película

Enlaces de descarga

Rip de Bluray

Descargar Crown Heights (2017) WEB-DL 1080p Latino




Aportes de DPeliculasHDmega la pass es:dpeliculashdmega.org Aportes de CinemaniaHD la pass es:cinemaniahdd.com
Guardado en : Drama

Películas relacionadas

  • El Vacio (2018) Temporada 1 NF 1080p Latino

    2018
    El Vacio (2018) Temporada 1 NF 1080p Latino

    0.0 0h 25m 2018

    Tres adolescentes despiertan en un reino extraño lleno de portales mágicos, enigmas desconcertantes...

    Director: Vito Viscomi

    Género: Animación

    Actores: Mark Hildreth

  • Wolf Warrior 2 (2017) 1080p Latino

    2017
    Wolf Warrior 2 (2017) 1080p Latino

    0.0 2h 6m 2017

    Secuela de la película de acción exitosa "Wolf Warrior" (2015) La operación más peligrosa de las...

    Director: Wu Jing

    Género: Acción

    Actores: Yu Qian

  • The Front Runner (2018) Full 1080p Latino

    2018
    The Front Runner (2018) Full 1080p Latino

    0.0 1h 53m 2018

    Narra la campaña presidencial del senador estadounidense Gary Hart, que tuvo lugar en 1988, momento...

    Director: Jason Reitman

    Género: Drama

    Actores: William Walker

  • Papillon (2017) 1080p Latino

    2017
    Papillon (2017) 1080p Latino

    0.0 1h 49m 2017

    Red Granite Pictures producte esta nueva versión del clásico homónimo de 1973 dirigido por Franklin...

    Director: Michael Noer

    Género: Drama

    Actores: Yorick van Wageningen

Comentarios 0