×

¿Problemas para descargar con Mozilla, EDGE? Deshabilita la opción "Abrir vinculos en una pestaña nueva" tal como lo muestra ésta imagen.

Cross 3 (2019) WEB-DL 1080p Latino

312 vistas

Información de Cross 3 (2019) WEB-DL 1080p Latino

Datos de la película

  • Calidad: WEBDL
  • Audio: Español Latino AC3 2.0 Capturado - Ingles AC3 5.1 WEBDL
  • Subtitulos: Español Latino SRT- FORZADOS SRT
  • Resolución: 1920x1080
  • Formato: MKV
  • Codec: H.264
  • Encoder: CinemaniaHDD.Net
  • Mediainfo: Clic para Mostrar Datos Ver
  • Cross 3 (2019) WEB-DL 1080p Latino - CinemaniaHDD.Net.mkv
    Format                      : Matroska
    Format version              : Version 4
    File size                   : 4.07 GiB
    Duration                    : 1 h 40 min
    Overall bit rate            : 5 828 kb/s
    Movie name                  : Cross 3 (2019) - CinemaniaHDD.Net
    Encoded date                : UTC 2020-09-30 00:47:12
    Writing application         : mkvmerge v46.0.0 ('No Deeper Escape') 64-bit
    Writing library             : libebml v1.3.10 + libmatroska v1.5.2

    Video
    ID                          : 1
    Format                      : AVC
    Format/Info                 : Advanced Video Codec
    Format profile              : High@L4
    Format settings             : CABAC / 4 Ref Frames
    Format settings, CABAC      : Yes
    Format settings, Reference  : 4 frames
    Codec ID                    : V_MPEG4/ISO/AVC
    Duration                    : 1 h 40 min
    Bit rate                    : 5 186 kb/s
    Width                       : 1 920 pixels
    Height                      : 1 080 pixels
    Display aspect ratio        : 16:9
    Frame rate mode             : Constant
    Frame rate                  : 23.976 FPS
    Color space                 : YUV
    Chroma subsampling          : 4:2:0
    Bit depth                   : 8 bits
    Scan type                   : Progressive
    Bits/(Pixel*Frame)          : 0.104
    Stream size                 : 3.62 GiB (89%)
    Title                       : CinemaniaHDD
    Language                    : English
    Default                     : Yes
    Forced                      : No
    Color range                 : Limited
    Color primaries             : BT.709
    Transfer characteristics    : BT.709
    Matrix coefficients         : BT.709

    Audio #1
    ID                          : 2
    Format                      : AC-3
    Format/Info                 : Audio Coding 3
    Commercial name             : Dolby Digital
    Codec ID                    : A_AC3
    Duration                    : 1 h 40 min
    Bit rate mode               : Constant
    Bit rate                    : 256 kb/s
    Channel(s)                  : 2 channels
    Channel layout              : L R
    Sampling rate               : 48.0 kHz
    Frame rate                  : 31.250 FPS (1536 SPF)
    Compression mode            : Lossy
    Delay relative to video     : -42 ms
    Stream size                 : 183 MiB (4%)
    Title                       : Español latino [CinemaniaHDD]
    Language                    : Spanish
    Service kind                : Complete Main
    Default                     : Yes
    Forced                      : No

    Audio #2
    ID                          : 3
    Format                      : AC-3
    Format/Info                 : Audio Coding 3
    Commercial name             : Dolby Digital
    Codec ID                    : A_AC3
    Duration                    : 1 h 40 min
    Bit rate mode               : Constant
    Bit rate                    : 384 kb/s
    Channel(s)                  : 6 channels
    Channel layout              : L R C LFE Ls Rs
    Sampling rate               : 48.0 kHz
    Frame rate                  : 31.250 FPS (1536 SPF)
    Compression mode            : Lossy
    Delay relative to video     : -42 ms
    Stream size                 : 275 MiB (7%)
    Title                       : Inglés [CinemaniaHDD]
    Language                    : English
    Service kind                : Complete Main
    Default                     : No
    Forced                      : No

    Text #1
    ID                          : 4
    Format                      : UTF-8
    Codec ID                    : S_TEXT/UTF8
    Codec ID/Info               : UTF-8 Plain Text
    Duration                    : 1 h 33 min
    Bit rate                    : 0 b/s
    Count of elements           : 15
    Stream size                 : 330 Bytes (0%)
    Title                       : Forzados [CinemaniaHDD]
    Language                    : Spanish
    Default                     : Yes
    Forced                      : Yes

    Text #2
    ID                          : 5
    Format                      : UTF-8
    Codec ID                    : S_TEXT/UTF8
    Codec ID/Info               : UTF-8 Plain Text
    Duration                    : 1 h 35 min
    Bit rate                    : 62 b/s
    Count of elements           : 1335
    Stream size                 : 43.4 KiB (0%)
    Title                       : Español latino [CinemaniaHDD]
    Language                    : Spanish
    Default                     : No
    Forced                      : No

    Text #3
    ID                          : 6
    Format                      : UTF-8
    Codec ID                    : S_TEXT/UTF8
    Codec ID/Info               : UTF-8 Plain Text
    Duration                    : 1 h 37 min
    Bit rate                    : 88 b/s
    Count of elements           : 1626
    Stream size                 : 63.4 KiB (0%)
    Title                       : Inglés [CinemaniaHDD]
    Language                    : English
    Default                     : No
    Forced                      : No

    Menu
    00:00:00.000                : en:1
    00:05:11.519                : en:2
    00:12:00.177                : en:3
    00:18:26.520                : en:4
    00:25:40.578                : en:5
    00:29:15.960                : en:6
    00:35:28.749                : en:7
    00:43:48.457                : en:8
    00:48:54.721                : en:9
    00:53:16.190                : en:10
    01:01:49.494                : en:11
    01:05:59.869                : en:12
    01:13:21.935                : en:13
    01:17:56.500                : en:14
    01:24:20.050                : en:15
    01:31:25.682                : en:16

     

  • Peso: 4.07 GiB

Sinopsis

Armado con un explosivo y poderoso amuleto cruzado antiguo, Callan (Brian Austin Green) regresa con su extraordinario equipo de expertos en armas para defender a Los Ángeles de su mayor amenaza, los supervillanos Muerte (Danny Trejo) y Drago (Manu Intiraymi). Callan tendrá que unir fuerzas con su enemigo mortal, Gunnar (Vinnie Jones), para tratar de salvar la ciudad. Tom Sizemore regresa como el Detective Nitti y Lou Ferrigno, DB Sweeney, Jeremy London y Eric Roberts como The Contractors.

Ficha técnica

Video trailer de la película

Enlaces de descarga

Rip de Bluray

Descargar Cross 3 (2019) WEB-DL 1080p Latino




Aportes de DPeliculasHDmega la pass es:dpeliculashdmega.org Aportes de CinemaniaHD la pass es:cinemaniahdd.com
Guardado en : Acción

Películas relacionadas

descargar Cross 3 (2019) WEB-DL 1080p Latino WEBDL 1080p gratis, Cross 3 (2019) WEB-DL 1080p Latino WEBDL mega 1 link, Cross 3 (2019) WEB-DL 1080p Latino WEBDL pelicula completa, descargar Cross 3 (2019) WEB-DL 1080p Latino WEBDL gratis en mega.

Cross 3 (2019) WEB-DL 1080p Latino pelicula full hd, Cross 3 (2019) WEB-DL 1080p Latino mega latino, Cross 3 (2019) WEB-DL 1080p Latino 4k latino, Cross 3 (2019) WEB-DL 1080p Latino pelicula completa, Cross 3 (2019) WEB-DL 1080p Latino descargar gratis, descargar Cross 3 (2019) WEB-DL 1080p Latino pelicula latino, Cross 3 (2019) WEB-DL 1080p Latino 1 link mega, Cross 3 (2019) WEB-DL 1080p Latino 1 link google drive, Cross 3 (2019) WEB-DL 1080p Latino hd 1080p latino.
Comentarios 2
  • Hugo - 30 septiembre, 2020

    Deberían usar el códec h265 así las películas no pesaran tanto

    • Dracarys - 30 septiembre, 2020

      Dile eso a SONY, ya que esta película es WEB-DL NO BDRip