×

¿Problemas para descargar con Mozilla, EDGE? Deshabilita la opción "Abrir vinculos en una pestaña nueva" tal como lo muestra ésta imagen.

Critters Attack! (2019) 1080p Latino

2.011 vistas

Información de Critters Attack! (2019) 1080p Latino

critters attack 55220 poster

Datos de la película

  • Calidad: 1080p
  • Audio: Español Latino AC3 5.1 BLURAY - Ingles AC3 5.1 BLURAY
  • Subtitulos: Español Latino SRT- FORZADOS SRT
  • Resolución: 1920x1080
  • Formato: MKV
  • Codec: H.264
  • Encoder: cinemaniahdd
  • Mediainfo: Clic para Mostrar Datos Ver
  • Critters Attack (2019 1080p Latino.mkv
    Format                      : Matroska
    Format version              : Version 4
    File size                   : 2.71 GiB
    Duration                    : 1 h 29 min
    Overall bit rate            : 4 343 kb/s
    Movie name                  : CrittersAttack (2019 1080p Latino
    Encoded date                : UTC 2019-07-19 02:39:49
    Writing application         : mkvmerge v35.0.0 ('All The Love In The World') 64-bit
    Writing library             : libebml v1.3.9 + libmatroska v1.5.2

    Video
    ID                          : 1
    Format                      : AVC
    Format/Info                 : Advanced Video Codec
    Format profile              : High@L4.1
    Format settings             : CABAC / 4 Ref Frames
    Format settings, CABAC      : Yes
    Format settings, ReFrames   : 4 frames
    Codec ID                    : V_MPEG4/ISO/AVC
    Duration                    : 1 h 29 min
    Bit rate                    : 3 500 kb/s
    Width                       : 1 920 pixels
    Height                      : 1 080 pixels
    Display aspect ratio        : 16:9
    Frame rate mode             : Constant
    Frame rate                  : 23.976 (24000/1001) FPS
    Color space                 : YUV
    Chroma subsampling          : 4:2:0
    Bit depth                   : 8 bits
    Scan type                   : Progressive
    Bits/(Pixel*Frame)          : 0.070
    Stream size                 : 2.15 GiB (79%)
    Title                       : CinemaniaHDD
    Writing library             : x264 core 157 r2935 545de2f
    Encoding settings           : cabac=1 / ref=3 / deblock=1:0:0 / analyse=0x3:0x113 / me=hex / subme=7 / psy=1 / psy_rd=1.00:0.00 / mixed_ref=1 / me_range=16 / chroma_me=1 / trellis=1 / 8x8dct=1 / cqm=0 / deadzone=21,11 / fast_pskip=1 / chroma_qp_offset=-2 / threads=34 / lookahead_threads=5 / sliced_threads=0 / nr=0 / decimate=1 / interlaced=0 / bluray_compat=0 / constrained_intra=0 / bframes=3 / b_pyramid=2 / b_adapt=1 / b_bias=0 / direct=1 / weightb=1 / open_gop=0 / weightp=2 / keyint=240 / keyint_min=24 / scenecut=40 / intra_refresh=0 / rc_lookahead=40 / rc=abr / mbtree=1 / bitrate=3500 / ratetol=1.0 / qcomp=0.60 / qpmin=0 / qpmax=69 / qpstep=4 / vbv_maxrate=62500 / vbv_bufsize=78125 / nal_hrd=none / filler=0 / ip_ratio=1.40 / aq=1:1.00
    Default                     : Yes
    Forced                      : No
    Color range                 : Limited
    Color primaries             : BT.709
    Transfer characteristics    : BT.709
    Matrix coefficients         : BT.709

    Audio #1
    ID                          : 2
    Format                      : AC-3
    Format/Info                 : Audio Coding 3
    Commercial name             : Dolby Digital
    Codec ID                    : A_AC3
    Duration                    : 1 h 29 min
    Bit rate mode               : Constant
    Bit rate                    : 448 kb/s
    Channel(s)                  : 6 channels
    Channel layout              : L R C LFE Ls Rs
    Sampling rate               : 48.0 kHz
    Frame rate                  : 31.250 FPS (1536 SPF)
    Bit depth                   : 16 bits
    Compression mode            : Lossy
    Delay relative to video     : -5 ms
    Stream size                 : 286 MiB (10%)
    Title                       : Español latino [CinemaniaHDD]
    Language                    : Spanish
    Service kind                : Complete Main
    Default                     : Yes
    Forced                      : No

    Audio #2
    ID                          : 3
    Format                      : AC-3
    Format/Info                 : Audio Coding 3
    Commercial name             : Dolby Digital
    Codec ID                    : A_AC3
    Duration                    : 1 h 29 min
    Bit rate mode               : Constant
    Bit rate                    : 448 kb/s
    Channel(s)                  : 6 channels
    Channel layout              : L R C LFE Ls Rs
    Sampling rate               : 48.0 kHz
    Frame rate                  : 31.250 FPS (1536 SPF)
    Bit depth                   : 16 bits
    Compression mode            : Lossy
    Delay relative to video     : -5 ms
    Stream size                 : 286 MiB (10%)
    Title                       : Inglés [CinemaniaHDD]
    Language                    : English
    Service kind                : Complete Main
    Default                     : No
    Forced                      : No

    Text #1
    ID                          : 4
    Format                      : UTF-8
    Codec ID                    : S_TEXT/UTF8
    Codec ID/Info               : UTF-8 Plain Text
    Duration                    : 57 min 58 s
    Bit rate                    : 0 b/s
    Count of elements           : 4
    Stream size                 : 59.0 Bytes (0%)
    Title                       : Forzados [CinemaniaHDD]
    Language                    : Spanish
    Default                     : Yes
    Forced                      : Yes

    Text #2
    ID                          : 5
    Format                      : UTF-8
    Codec ID                    : S_TEXT/UTF8
    Codec ID/Info               : UTF-8 Plain Text
    Duration                    : 1 h 24 min
    Bit rate                    : 45 b/s
    Count of elements           : 979
    Stream size                 : 28.2 KiB (0%)
    Title                       : Español latino [CinemaniaHDD]
    Language                    : Spanish
    Default                     : No
    Forced                      : No

    Menu
    00:00:00.000                : :Chapter 1
    00:08:59.080                : :Chapter 2
    00:17:31.968                : :Chapter 3
    00:26:11.028                : :Chapter 4
    00:36:25.225                : :Chapter 5
    00:44:02.223                : :Chapter 6
    00:51:20.244                : :Chapter 7
    00:57:42.709                : :Chapter 8
    01:06:17.932                : :Chapter 9
    01:15:14.593                : :Chapter 10
    01:25:30.876                : :Chapter 11

     

  • Peso: 2.71 GiB

Sinopsis

Drea (Tashiana Washington) es una joven de 20 años que acepta a regañadientes convertirse en la niñera de una de sus profesoras de Universidad. En su intento por entretener a Trissy (Ava Preston) y a Jake (Jack Fulton), además de a su hermano pequeño Phillip (Jaeden Noel), Drea decide sacarlos de paseo por un sendero rural, sin saber que por él pulula una misteriosa raza alienígena que devora todo lo que encuentra a su paso.

Ficha técnica

Video trailer de la película

Enlaces de descarga

Rip de Bluray

Descargar Critters Attack! (2019) 1080p Latino




Aportes de DPeliculasHDmega la pass es:dpeliculashdmega.org Aportes de CinemaniaHD la pass es:cinemaniahdd.com Aportes recientes:cinemaniahdd.net

Películas relacionadas

descargar Critters Attack! (2019) 1080p Latino 1080p 1080p gratis, Critters Attack! (2019) 1080p Latino 1080p mega 1 link, Critters Attack! (2019) 1080p Latino 1080p pelicula completa, descargar Critters Attack! (2019) 1080p Latino 1080p gratis en mega.

Critters Attack! (2019) 1080p Latino pelicula full hd, Critters Attack! (2019) 1080p Latino mega latino, Critters Attack! (2019) 1080p Latino 4k latino, Critters Attack! (2019) 1080p Latino pelicula completa, Critters Attack! (2019) 1080p Latino descargar gratis, descargar Critters Attack! (2019) 1080p Latino pelicula latino, Critters Attack! (2019) 1080p Latino 1 link mega, Critters Attack! (2019) 1080p Latino 1 link google drive, Critters Attack! (2019) 1080p Latino hd 1080p latino.
Comentarios 0