×

¿Problemas para descargar con Mozilla, EDGE? Deshabilita la opción "Abrir vinculos en una pestaña nueva" tal como lo muestra ésta imagen.

Criss Angel Mindfreak (2005) Primera Temporada AMZN WEB-DL 480p Latino

207 vistas

Información de Criss Angel Mindfreak (2005) Primera Temporada AMZN WEB-DL 480p Latino

Datos de la película

  • Calidad: WEBDL
  • Audio: Español Latino AC3 2.0
  • Subtitulos: No
  • Resolución: 640x480
  • Formato: MKV
  • Codec: H.264
  • Encoder: cinemaniahdd
  • Mediainfo: Clic para Mostrar Datos Ver
  • Criss Angel Mindfreak T01E01 AMZN WEB-DL 480p Latino [CNMNHDD].mkv
    Format                      : Matroska
    Format version              : Version 4
    File size                   : 710 MiB
    Duration                    : 42 min 32 s
    Overall bit rate            : 2 334 kb/s
    Movie name                  : Criss Angel Mindfreak T01E01 - CinemaniaHDD.Net
    Encoded date                : UTC 2021-05-17 02:19:30
    Writing application         : mkvmerge v46.0.0 ('No Deeper Escape') 64-bit
    Writing library             : libebml v1.3.10 + libmatroska v1.5.2

    Video
    ID                          : 1
    Format                      : AVC
    Format/Info                 : Advanced Video Codec
    Format profile              : Main@L3
    Format settings             : CABAC / 4 Ref Frames
    Format settings, CABAC      : Yes
    Format settings, Reference  : 4 frames
    Codec ID                    : V_MPEG4/ISO/AVC
    Duration                    : 42 min 32 s
    Bit rate mode               : Constant
    Bit rate                    : 2 000 kb/s
    Width                       : 640 pixels
    Height                      : 480 pixels
    Display aspect ratio        : 4:3
    Frame rate mode             : Constant
    Frame rate                  : 29.970 (30000/1001) FPS
    Color space                 : YUV
    Chroma subsampling          : 4:2:0
    Bit depth                   : 8 bits
    Scan type                   : Progressive
    Bits/(Pixel*Frame)          : 0.217
    Stream size                 : 602 MiB (85%)
    Title                       : CinemaniaHDD
    Language                    : English
    Default                     : Yes
    Forced                      : No
    Color range                 : Limited
    Color primaries             : BT.709
    Transfer characteristics    : BT.709
    Matrix coefficients         : BT.709

    Audio #1
    ID                          : 2
    Format                      : AAC LC
    Format/Info                 : Advanced Audio Codec Low Complexity
    Codec ID                    : A_AAC-2
    Duration                    : 42 min 32 s
    Bit rate                    : 128 kb/s
    Channel(s)                  : 2 channels
    Channel layout              : L R
    Sampling rate               : 48.0 kHz
    Frame rate                  : 46.875 FPS (1024 SPF)
    Compression mode            : Lossy
    Stream size                 : 38.9 MiB (5%)
    Title                       : Español latino [CinemaniaHDD]
    Language                    : Spanish
    Default                     : Yes
    Forced                      : No

    Audio #2
    ID                          : 3
    Format                      : E-AC-3
    Format/Info                 : Enhanced AC-3
    Commercial name             : Dolby Digital Plus
    Codec ID                    : A_EAC3
    Duration                    : 42 min 32 s
    Bit rate mode               : Constant
    Bit rate                    : 224 kb/s
    Channel(s)                  : 2 channels
    Channel layout              : L R
    Sampling rate               : 48.0 kHz
    Frame rate                  : 31.250 FPS (1536 SPF)
    Compression mode            : Lossy
    Stream size                 : 68.1 MiB (10%)
    Title                       : Español latino - E-AC3 [CinemaniaHDD]
    Language                    : Spanish
    Service kind                : Complete Main
    Default                     : No
    Forced                      : No

     

  • Peso: 710 MiB Aprox ---- 6.64 GiB in 18 Chapters.

Sinopsis

El Maestro Ilusionista Criss Angel, considerado el nombre más influyente en la magia de hoy en día, trasciende la tradición y pasa a un nuevo tipo de misticismo moderno. Criss Angel muestra misterio en el escenario en la calle y en sus demostraciones públicas, lo cual difumina la línea entre realidad e ilusión.

Ficha técnica

  • Titulo original: Criss Angel Mindfreak
  • Fecha de lanzamiento: 20-07-2005 (US)
  • Director: Criss Angel
  • Género: Comedia, Series

Video trailer de la película

Enlaces de descarga

Rip de Bluray

Descargar Criss Angel Mindfreak (2005) Primera Temporada AMZN WEB-DL 480p Latino




Aportes de DPeliculasHDmega la pass es:dpeliculashdmega.org Aportes de CinemaniaHD la pass es:cinemaniahdd.com
Guardado en : Comedia , Series

Películas relacionadas

descargar Criss Angel Mindfreak (2005) Primera Temporada AMZN WEB-DL 480p Latino WEBDL 1080p gratis, Criss Angel Mindfreak (2005) Primera Temporada AMZN WEB-DL 480p Latino WEBDL mega 1 link, Criss Angel Mindfreak (2005) Primera Temporada AMZN WEB-DL 480p Latino WEBDL serie completa, descargar Criss Angel Mindfreak (2005) Primera Temporada AMZN WEB-DL 480p Latino WEBDL gratis en mega.

Criss Angel Mindfreak (2005) Primera Temporada AMZN WEB-DL 480p Latino pelicula full hd, Criss Angel Mindfreak (2005) Primera Temporada AMZN WEB-DL 480p Latino mega latino, Criss Angel Mindfreak (2005) Primera Temporada AMZN WEB-DL 480p Latino 4k latino, Criss Angel Mindfreak (2005) Primera Temporada AMZN WEB-DL 480p Latino pelicula completa, Criss Angel Mindfreak (2005) Primera Temporada AMZN WEB-DL 480p Latino descargar gratis, descargar Criss Angel Mindfreak (2005) Primera Temporada AMZN WEB-DL 480p Latino pelicula latino, Criss Angel Mindfreak (2005) Primera Temporada AMZN WEB-DL 480p Latino 1 link mega, Criss Angel Mindfreak (2005) Primera Temporada AMZN WEB-DL 480p Latino 1 link google drive, Criss Angel Mindfreak (2005) Primera Temporada AMZN WEB-DL 480p Latino hd 1080p latino.
Comentarios 0