×

¿Problemas para descargar con Mozilla, EDGE? Deshabilita la opción "Abrir vinculos en una pestaña nueva" tal como lo muestra ésta imagen.

Crimenes De Lujuria (2011) REMUX 1080p Latino

952 vistas

Información de Crimenes De Lujuria (2011) REMUX 1080p Latino

Datos de la película

  • Calidad: Full 1080p
  • Audio: Español Latino DTS 5.1 BLURAY
  • Subtitulos: No
  • Resolución: 1920x1080p
  • Formato: MKV
  • Codec: H.264
  • Encoder: CinefiloCool
  • Mediainfo: Clic para Mostrar Datos Ver
  • Crimenes De Lujuria (2011) REMUX 1080p Latino-CMHDD.mkv
    Format                      : Matroska
    Format version              : Version 4
    File size                   : 15.0 GiB
    Duration                    : 1 h 29 min
    Overall bit rate mode       : Variable
    Overall bit rate            : 23.9 Mb/s
    Movie name                  : Crimenes De Lujuria (2011) CinemaniaHDD.Net
    Encoded date                : UTC 2022-02-16 04:46:33
    Writing application         : mkvmerge v56.1.0 ('My Friend') 64-bit
    Writing library             : libebml v1.4.2 + libmatroska v1.6.4
    Attachments                 : CINEMANIAHD.png

    Video
    ID                          : 1
    ID in the original source m : 4113 (0x1011)
    Format                      : AVC
    Format/Info                 : Advanced Video Codec
    Format profile              : High@L4.1
    Format settings             : CABAC / 2 Ref Frames
    Format settings, CABAC      : Yes
    Format settings, Reference  : 2 frames
    Format settings, GOP        : M=1, N=5
    Codec ID                    : V_MPEG4/ISO/AVC
    Duration                    : 1 h 29 min
    Bit rate mode               : Variable
    Bit rate                    : 21.2 Mb/s
    Maximum bit rate            : 32.2 Mb/s
    Width                       : 1 920 pixels
    Height                      : 1 080 pixels
    Display aspect ratio        : 16:9
    Frame rate mode             : Constant
    Frame rate                  : 24.000 FPS
    Color space                 : YUV
    Chroma subsampling          : 4:2:0
    Bit depth                   : 8 bits
    Scan type                   : Progressive
    Bits/(Pixel*Frame)          : 0.425
    Stream size                 : 13.3 GiB (89%)
    Title                       : REMUX HD1080p [CinemaniaHDD]
    Default                     : Yes
    Forced                      : Yes
    Original source medium      : Blu-ray

    Audio #1
    ID                          : 2
    ID in the original source m : 4353 (0x1101)
    Format                      : DTS XLL
    Format/Info                 : Digital Theater Systems
    Commercial name             : DTS-HD Master Audio
    Codec ID                    : A_DTS
    Duration                    : 1 h 29 min
    Bit rate mode               : Variable
    Bit rate                    : 1 934 kb/s
    Channel(s)                  : 8 channels
    Channel layout              : C L R LFE Lb Rb Lss Rss
    Sampling rate               : 48.0 kHz
    Frame rate                  : 93.750 FPS (512 SPF)
    Bit depth                   : 16 bits
    Compression mode            : Lossless
    Stream size                 : 1.21 GiB (8%)
    Title                       : Español Latino [CinemaniaHDD]
    Language                    : Spanish
    Default                     : Yes
    Forced                      : Yes
    Original source medium      : Blu-ray

    Audio #2
    ID                          : 3
    Format                      : DTS
    Format/Info                 : Digital Theater Systems
    Codec ID                    : A_DTS
    Duration                    : 1 h 29 min
    Bit rate mode               : Constant
    Bit rate                    : 768 kb/s
    Channel(s)                  : 6 channels
    Channel layout              : C L R Ls Rs LFE
    Sampling rate               : 48.0 kHz
    Frame rate                  : 93.750 FPS (512 SPF)
    Bit depth                   : 24 bits
    Compression mode            : Lossy
    Stream size                 : 493 MiB (3%)
    Title                       : Español Latino DTS [CinemaniaHDD]
    Language                    : Spanish
    Default                     : No
    Forced                      : No

    Menu
    00:00:00.000                : Chapter 01
    00:02:49.208                : Chapter 02
    00:10:59.416                : Chapter 03
    00:18:55.666                : Chapter 04
    00:31:33.000                : Chapter 05
    00:41:07.291                : Chapter 06
    00:51:36.791                : Chapter 07
    01:01:32.375                : Chapter 08
    01:10:09.000                : Chapter 09
    01:18:31.291                : Chapter 10
    01:25:48.041                : Chapter 11
    01:28:31.041                : Chapter 12

  • Peso: 15.0 GiB

Sinopsis

Descargar Crimenes De Lujuria (2011) REMUX 1080p Latino. Cuando el día empieza Arturo y Rebeca, un par de enamorados, idean un plan para matar al esposo de Rebeca y huir de la ciudad con el dinero para iniciar una nueva vida juntos. Cuando su plan empieza a desmoronarse ambos tendrán que luchar por la supervivencia.

Audio Español Latino DTS-HD 7.1 + DTS 5.1 Bluray
RESUBIDA, Disponible Solo Para VIP!!!

Ficha técnica

Video trailer de la película

Enlaces de descarga

Rip de Bluray

Descargar Crimenes De Lujuria (2011) REMUX 1080p Latino


Aportes de DPeliculasHDmega la pass es:dpeliculashdmega.org Aportes de CinemaniaHD la pass es:cinemaniahdd.com Aportes recientes:cinemaniahdd.net
Guardado en : Drama , Remux , Romance , Suspenso

Películas relacionadas

  • Red de venganza (2023) HD 1080p Latino

    Red de venganza (2023) HD 1080p Latino

    2023
    Red de venganza (2023) HD 1080p Latino

    1h 25m 2023

    Descargar Red de venganza (2023) HD 1080p Latino. Analiza los problemas que surgen entre una madre (Summer...

    Director: Amy Redford

    Género: Drama

    Actores: Summer Phoenix

  • Red de venganza (2023) REMUX 1080p Latino

    Red de venganza (2023) REMUX 1080p Latino

    2023
    Red de venganza (2023) REMUX 1080p Latino

    1h 25m 2023

    Descargar Red de venganza (2023) REMUX 1080p Latino. Analiza los problemas que surgen entre una madre...

    Director: Amy Redford

    Género: Drama

    Actores: Summer Phoenix

  • Recuerdos Mortales (2024) WEB-DL 1080p Latino

    Recuerdos Mortales (2024) WEB-DL 1080p Latino

    2024
    Recuerdos Mortales (2024) WEB-DL 1080p Latino

    1h 52m 2024

    Descargar Recuerdos Mortales (2024) WEB-DL 1080p Latino. Después de someterse a un tratamiento de vanguardia...

    Director: Adam Cooper

    Género: Crimen

    Actores: Tommy Flanagan

descargar Crimenes De Lujuria (2011) REMUX 1080p Latino Full 1080p 1080p gratis, Crimenes De Lujuria (2011) REMUX 1080p Latino Full 1080p mega 1 link, Crimenes De Lujuria (2011) REMUX 1080p Latino Full 1080p pelicula completa, descargar Crimenes De Lujuria (2011) REMUX 1080p Latino Full 1080p gratis en mega.

Crimenes De Lujuria (2011) REMUX 1080p Latino pelicula full hd, Crimenes De Lujuria (2011) REMUX 1080p Latino mega latino, Crimenes De Lujuria (2011) REMUX 1080p Latino 4k latino, Crimenes De Lujuria (2011) REMUX 1080p Latino pelicula completa, Crimenes De Lujuria (2011) REMUX 1080p Latino descargar gratis, descargar Crimenes De Lujuria (2011) REMUX 1080p Latino pelicula latino, Crimenes De Lujuria (2011) REMUX 1080p Latino 1 link mega, Crimenes De Lujuria (2011) REMUX 1080p Latino 1 link google drive, Crimenes De Lujuria (2011) REMUX 1080p Latino hd 1080p latino.
Comentarios 0