×

¿Problemas para descargar con Mozilla, EDGE? Deshabilita la opción "Abrir vinculos en una pestaña nueva" tal como lo muestra ésta imagen.

Crimenes De Lujuria (2011) Full HD 1080p Latino

359 vistas

Información de Crimenes De Lujuria (2011) Full HD 1080p Latino

Datos de la película

  • Calidad: Full 1080p
  • Audio: Español Latino DTS 5.1 BLURAY
  • Subtitulos: No
  • Resolución: 1920x1080p
  • Formato: MKV
  • Codec: H.264
  • Encoder: CinefiloCool
  • Mediainfo: Clic para Mostrar Datos Ver
  • Crimenes De Lujuria (2011) Full HD 1080p Latino-CMHDD.mkv
    Format                      : Matroska
    Format version              : Version 4
    File size                   : 3.65 GiB
    Duration                    : 1 h 29 min
    Overall bit rate            : 5 816 kb/s
    Movie name                  : Crimenes De Lujuria (2011) CinemaniaHDD.Net
    Encoded date                : UTC 2023-05-01 04:28:52
    Writing application         : mkvmerge v56.1.0 ('My Friend') 64-bit
    Writing library             : libebml v1.4.2 + libmatroska v1.6.4
    Attachments                 : CINEMANIAHD.png

    Video
    ID                          : 1
    Format                      : AVC
    Format/Info                 : Advanced Video Codec
    Format profile              : High@L4.1
    Format settings             : CABAC / 4 Ref Frames
    Format settings, CABAC      : Yes
    Format settings, Reference  : 4 frames
    Codec ID                    : V_MPEG4/ISO/AVC
    Duration                    : 1 h 29 min
    Bit rate                    : 4 932 kb/s
    Width                       : 1 920 pixels
    Height                      : 1 080 pixels
    Display aspect ratio        : 16:9
    Frame rate mode             : Constant
    Frame rate                  : 24.000 FPS
    Color space                 : YUV
    Chroma subsampling          : 4:2:0
    Bit depth                   : 8 bits
    Scan type                   : Progressive
    Bits/(Pixel*Frame)          : 0.099
    Stream size                 : 3.09 GiB (85%)
    Title                       : Full HD1080p [CinemaniaHDD]
    Writing library             : x264 core 163 r3059 b684ebe0
    Encoding settings           : cabac=1 / ref=4 / deblock=1:0:0 / analyse=0x3:0x133 / me=tesa / subme=11 / psy=1 / psy_rd=1.00:0.00 / mixed_ref=1 / me_range=24 / chroma_me=1 / trellis=2 / 8x8dct=1 / cqm=0 / deadzone=21,11 / fast_pskip=0 / chroma_qp_offset=-2 / threads=24 / lookahead_threads=6 / sliced_threads=0 / nr=0 / decimate=1 / interlaced=0 / bluray_compat=0 / constrained_intra=0 / bframes=16 / b_pyramid=2 / b_adapt=2 / b_bias=0 / direct=3 / weightb=1 / open_gop=0 / weightp=2 / keyint=240 / keyint_min=24 / scenecut=40 / intra_refresh=0 / rc_lookahead=60 / rc=crf / mbtree=1 / crf=20.0 / qcomp=0.60 / qpmin=0 / qpmax=69 / qpstep=4 / vbv_maxrate=62500 / vbv_bufsize=78125 / crf_max=0.0 / nal_hrd=none / filler=0 / ip_ratio=1.40 / aq=1:1.00
    Default                     : Yes
    Forced                      : Yes
    Color range                 : Limited
    Color primaries             : BT.709
    Transfer characteristics    : BT.709
    Matrix coefficients         : BT.709

    Audio
    ID                          : 2
    Format                      : DTS
    Format/Info                 : Digital Theater Systems
    Codec ID                    : A_DTS
    Duration                    : 1 h 29 min
    Bit rate mode               : Constant
    Bit rate                    : 768 kb/s
    Channel(s)                  : 6 channels
    Channel layout              : C L R Ls Rs LFE
    Sampling rate               : 48.0 kHz
    Frame rate                  : 93.750 FPS (512 SPF)
    Bit depth                   : 24 bits
    Compression mode            : Lossy
    Stream size                 : 493 MiB (13%)
    Title                       : Español Latino [CinemaniaHDD]
    Language                    : Spanish
    Default                     : Yes
    Forced                      : Yes

    Menu
    00:00:00.000                : Chapter 01
    00:02:49.208                : Chapter 02
    00:10:59.416                : Chapter 03
    00:18:55.666                : Chapter 04
    00:31:33.000                : Chapter 05
    00:41:07.291                : Chapter 06
    00:51:36.791                : Chapter 07
    01:01:32.375                : Chapter 08
    01:10:09.000                : Chapter 09
    01:18:31.291                : Chapter 10
    01:25:48.041                : Chapter 11
    01:28:31.041                : Chapter 12

  • Peso: 3.65 GiB

Sinopsis

Descargar Crimenes De Lujuria (2011) Full HD 1080p Latino. Cuando el día empieza Arturo y Rebeca, un par de enamorados, idean un plan para matar al esposo de Rebeca y huir de la ciudad con el dinero para iniciar una nueva vida juntos. Cuando su plan empieza a desmoronarse ambos tendrán que luchar por la supervivencia.

Ficha técnica

Video trailer de la película

Enlaces de descarga

Rip de Bluray

Descargar Crimenes De Lujuria (2011) Full HD 1080p Latino




Aportes de DPeliculasHDmega la pass es:dpeliculashdmega.org Aportes de CinemaniaHD la pass es:cinemaniahdd.com Aportes recientes:cinemaniahdd.net

Películas relacionadas

  • Viviendo con mi ex (2006) REMUX 1080p Latino-CMHDD

    Viviendo con mi ex (2006) REMUX 1080p Latino-CMHDD

    2006
    Viviendo con mi ex (2006) REMUX 1080p Latino-CMHDD

    1h 46m 2006

    Descargar Viviendo con mi ex (2006) REMUX 1080p Latino-CMHDD. Relato sobre las consecuencias de una ruptura...

    Director: Todd Amateau

    Género: Comedia

    Actores: William Dick

  • Strictly Confidential (2024) WEB-DL 1080p Latino

    Strictly Confidential (2024) WEB-DL 1080p Latino

    2024
    Strictly Confidential (2024) WEB-DL 1080p Latino

    1h 28m 2024

    Descargar Strictly Confidential (2024) WEB-DL 1080p Latino. Una joven atormentada se ve atraída por...

    Director: Damian Hurley

    Género: Misterio

    Actores: Thomas Downey

  • La Otra Cara de Dorian (2023) WEB-DL 1080p Latino

    La Otra Cara de Dorian (2023) WEB-DL 1080p Latino

    2023
    La Otra Cara de Dorian (2023) WEB-DL 1080p Latino

    1h 40m 2023

    Descargar La Otra Cara de Dorian (2023) WEB-DL 1080p Latino. Una versión moderna del cuento de Oscar...

    Director: Richard John Taylor

    Género: Drama

    Actores: Triana Terry

  • Noche de Bodas (2024) WEB-DL 1080p Latino

    Noche de Bodas (2024) WEB-DL 1080p Latino

    2024
    Noche de Bodas (2024) WEB-DL 1080p Latino

    0h 0m 2024

    Descargar Noche de Bodas (2024) WEB-DL 1080p Latino. Lucía y Nico, la pareja del siglo, están a punto...

    Director: Osvaldo Benavides

    Género: Comedia

    Actores: Verónica Langer

descargar Crimenes De Lujuria (2011) Full HD 1080p Latino Full 1080p 1080p gratis, Crimenes De Lujuria (2011) Full HD 1080p Latino Full 1080p mega 1 link, Crimenes De Lujuria (2011) Full HD 1080p Latino Full 1080p pelicula completa, descargar Crimenes De Lujuria (2011) Full HD 1080p Latino Full 1080p gratis en mega.

Crimenes De Lujuria (2011) Full HD 1080p Latino pelicula full hd, Crimenes De Lujuria (2011) Full HD 1080p Latino mega latino, Crimenes De Lujuria (2011) Full HD 1080p Latino 4k latino, Crimenes De Lujuria (2011) Full HD 1080p Latino pelicula completa, Crimenes De Lujuria (2011) Full HD 1080p Latino descargar gratis, descargar Crimenes De Lujuria (2011) Full HD 1080p Latino pelicula latino, Crimenes De Lujuria (2011) Full HD 1080p Latino 1 link mega, Crimenes De Lujuria (2011) Full HD 1080p Latino 1 link google drive, Crimenes De Lujuria (2011) Full HD 1080p Latino hd 1080p latino.
Comentarios 0