×

¿Problemas para descargar con Mozilla, EDGE? Deshabilita la opción "Abrir vinculos en una pestaña nueva" tal como lo muestra ésta imagen.

Creed III (2023) WEB-DL 4K UHD HDR Latino

427 vistas

Información de Creed III (2023) WEB-DL 4K UHD HDR Latino

Datos de la película

  • Calidad: WEBDL
  • Audio: Se especifica abajo de la Sinopsis
  • Subtitulos: Español Latino SRT- FORZADOS SRT
  • Resolución: 3832x1596p
  • Formato: MKV
  • Codec: HEVC
  • Encoder: Melkor
  • Mediainfo: Clic para Mostrar Datos Ver
  • Creed III (2023) WEB UHD HDR Latino.mkv
    Format                      : Matroska
    Format version              : Version 4
    File size                   : 21.4 GiB
    Duration                    : 1 h 56 min
    Overall bit rate            : 26.3 Mb/s
    Movie name                  : Creed III (2023) CinemaniaHDD.Net
    Encoded date                : UTC 2023-03-31 08:28:51
    Writing application         : mkvmerge v56.1.0 ('My Friend') 64-bit
    Writing library             : libebml v1.4.2 + libmatroska v1.6.4
    Attachments                 : CINEMANIAHD.png
    Site                        : CinemaniaHDD.Net
    Uploader                    : Melkor

    Video
    ID                          : 1
    Format                      : HEVC
    Format/Info                 : High Efficiency Video Coding
    Format profile              : Main 10@L5@High
    HDR format                  : SMPTE ST 2094 App 4, Version 1, HDR10+ Profile B compatible
    Codec ID                    : V_MPEGH/ISO/HEVC
    Duration                    : 1 h 56 min
    Bit rate                    : 24.1 Mb/s
    Width                       : 3 832 pixels
    Height                      : 1 596 pixels
    Display aspect ratio        : 2.40:1
    Frame rate mode             : Constant
    Frame rate                  : 23.976 (24000/1001) FPS
    Color space                 : YUV
    Chroma subsampling          : 4:2:0 (Type 2)
    Bit depth                   : 10 bits
    Bits/(Pixel*Frame)          : 0.165
    Stream size                 : 19.6 GiB (92%)
    Title                       : Web 2160p HDR [CinemaniaHDD]
    Language                    : English
    Default                     : Yes
    Forced                      : No
    Color range                 : Limited
    Color primaries             : BT.2020
    Transfer characteristics    : PQ
    Matrix coefficients         : BT.2020 non-constant
    Mastering display color pri : BT.2020
    Mastering display luminance : min: 0.0050 cd/m2, max: 1000 cd/m2
    Maximum Content Light Level : 338 cd/m2
    Maximum Frame-Average Light : 126 cd/m2

    Audio #1
    ID                          : 2
    Format                      : AC-3
    Format/Info                 : Audio Coding 3
    Commercial name             : Dolby Digital
    Codec ID                    : A_AC3
    Duration                    : 1 h 56 min
    Bit rate mode               : Constant
    Bit rate                    : 640 kb/s
    Channel(s)                  : 6 channels
    Channel layout              : L R C LFE Ls Rs
    Sampling rate               : 48.0 kHz
    Frame rate                  : 31.250 FPS (1536 SPF)
    Compression mode            : Lossy
    Stream size                 : 532 MiB (2%)
    Title                       : Español Latino AC3 [CinemaniaHDD]
    Language                    : Spanish
    Service kind                : Complete Main
    Default                     : Yes
    Forced                      : Yes

    Audio #2
    ID                          : 3
    Format                      : E-AC-3 JOC
    Format/Info                 : Enhanced AC-3 with Joint Object Coding
    Commercial name             : Dolby Digital Plus with Dolby Atmos
    Codec ID                    : A_EAC3
    Duration                    : 1 h 56 min
    Bit rate mode               : Constant
    Bit rate                    : 768 kb/s
    Channel(s)                  : 6 channels
    Channel layout              : L R C LFE Ls Rs
    Sampling rate               : 48.0 kHz
    Frame rate                  : 31.250 FPS (1536 SPF)
    Compression mode            : Lossy
    Stream size                 : 639 MiB (3%)
    Title                       : Español Latino EAC3 [CinemaniaHDD]
    Language                    : Spanish
    Service kind                : Complete Main
    Default                     : No
    Forced                      : No
    Complexity index            : 16
    Number of dynamic objects   : 15
    Bed channel count           : 1 channel
    Bed channel configuration   : LFE

    Audio #3
    ID                          : 4
    Format                      : E-AC-3 JOC
    Format/Info                 : Enhanced AC-3 with Joint Object Coding
    Commercial name             : Dolby Digital Plus with Dolby Atmos
    Codec ID                    : A_EAC3
    Duration                    : 1 h 56 min
    Bit rate mode               : Constant
    Bit rate                    : 768 kb/s
    Channel(s)                  : 6 channels
    Channel layout              : L R C LFE Ls Rs
    Sampling rate               : 48.0 kHz
    Frame rate                  : 31.250 FPS (1536 SPF)
    Compression mode            : Lossy
    Stream size                 : 639 MiB (3%)
    Title                       : Ingles [CinemaniaHDD]
    Language                    : English
    Service kind                : Complete Main
    Default                     : No
    Forced                      : No
    Complexity index            : 16
    Number of dynamic objects   : 15
    Bed channel count           : 1 channel
    Bed channel configuration   : LFE

    Text #1
    ID                          : 5
    Format                      : UTF-8
    Codec ID                    : S_TEXT/UTF8
    Codec ID/Info               : UTF-8 Plain Text
    Duration                    : 1 h 41 min
    Bit rate                    : 2 b/s
    Count of elements           : 81
    Stream size                 : 1.88 KiB (0%)
    Title                       : Forzados-SRT [CinemaniaHDD]
    Language                    : Spanish
    Default                     : Yes
    Forced                      : Yes

    Text #2
    ID                          : 6
    Format                      : UTF-8
    Codec ID                    : S_TEXT/UTF8
    Codec ID/Info               : UTF-8 Plain Text
    Duration                    : 1 h 55 min
    Bit rate                    : 56 b/s
    Count of elements           : 1579
    Stream size                 : 47.9 KiB (0%)
    Title                       : Español-SRT [CinemaniaHDD]
    Language                    : Spanish
    Default                     : No
    Forced                      : No

    Text #3
    ID                          : 7
    Format                      : UTF-8
    Codec ID                    : S_TEXT/UTF8
    Codec ID/Info               : UTF-8 Plain Text
    Duration                    : 1 h 54 min
    Bit rate                    : 90 b/s
    Count of elements           : 1737
    Stream size                 : 75.8 KiB (0%)
    Title                       : Ingles-SRT [CinemaniaHDD]
    Language                    : English
    Default                     : No
    Forced                      : No

  • Peso: 21.4 GiB

Sinopsis

Descargar Creed III (2023) WEB-DL 4K UHD HDR Latino. Después de dominar el mundo del boxeo, Adonis Creed ha prosperado tanto en su carrera como en su vida familiar. Cuando un amigo de la infancia y ex prodigio de boxeo, Damien Anderson, resurge después de cumplir una larga sentencia en prisión, está ansioso por demostrar que merece su disparo en el ring. El enfrentamiento entre los antiguos amigos es más que una pelea. Para resolver el puntaje, Adonis debe poner su futuro en la línea para luchar contra Damien, un luchador que no tiene nada que perder.

Español Latino EAC3 JOC & AC3 5.1 Web – Ingles EAC3 JOC 5.1 Web

Ficha técnica

Video trailer de la película

Enlaces de descarga

Rip de Bluray

Descargar Creed III (2023) WEB-DL 4K UHD HDR Latino




Aportes de DPeliculasHDmega la pass es:dpeliculashdmega.org Aportes de CinemaniaHD la pass es:cinemaniahdd.com Aportes recientes:cinemaniahdd.net
Guardado en : 4K HDR , 4K UHD , Drama

Películas relacionadas

descargar Creed III (2023) WEB-DL 4K UHD HDR Latino WEBDL 1080p gratis, Creed III (2023) WEB-DL 4K UHD HDR Latino WEBDL mega 1 link, Creed III (2023) WEB-DL 4K UHD HDR Latino WEBDL pelicula completa, descargar Creed III (2023) WEB-DL 4K UHD HDR Latino WEBDL gratis en mega.

Creed III (2023) WEB-DL 4K UHD HDR Latino pelicula full hd, Creed III (2023) WEB-DL 4K UHD HDR Latino mega latino, Creed III (2023) WEB-DL 4K UHD HDR Latino 4k latino, Creed III (2023) WEB-DL 4K UHD HDR Latino pelicula completa, Creed III (2023) WEB-DL 4K UHD HDR Latino descargar gratis, descargar Creed III (2023) WEB-DL 4K UHD HDR Latino pelicula latino, Creed III (2023) WEB-DL 4K UHD HDR Latino 1 link mega, Creed III (2023) WEB-DL 4K UHD HDR Latino 1 link google drive, Creed III (2023) WEB-DL 4K UHD HDR Latino hd 1080p latino.
Comentarios 0