Locamente Millonarios (2018) 1080p Latino

1.564 vistas
1 estrella2 estrellas3 estrellas4 estrellas5 estrellas (1 votos, promedio: 5,00 de 5)
Cargando…

Información de Locamente Millonarios (2018) 1080p Latino

Datos de la película

  • Calidad: 1080p
  • Audio: Español Latino AC3 5.1 BLURAY - Ingles AC3 5.1 BLURAY
  • Subtitulos: Español Latino SRT - Ingles SRT
  • Resolución: 1920x800p
  • Formato: MKV
  • Codec: H.264
  • Encoder: CinefiloCool
  • Mediainfo: Clic para Mostrar Datos Ver
  • Locamente Millonarios (2018) 1080p Latino.mkv
    Format                      : Matroska
    Format version              : Version 4 / Version 2
    File size                   : 3.84 GiB
    Duration                    : 2 h 0 min
    Overall bit rate            : 4 555 kb/s
    Movie name                  : CinemaniaHDD.Net
    Encoded date                : UTC 2018-11-11 23:49:17 / UTC 2018-11-11T07:32:02Z
    Writing application         : mkvmerge v25.0.0 ('Prog Noir') 64-bit
    Writing library             : libebml v1.3.6 + libmatroska v1.4.9 / Lavf57.7.2

    Video
    ID                          : 1
    Format                      : AVC
    Format/Info                 : Advanced Video Codec
    Format profile              : [email protected]
    Format settings             : CABAC / 5 Ref Frames
    Format settings, CABAC      : Yes
    Format settings, RefFrames  : 5 frames
    Codec ID                    : V_MPEG4/ISO/AVC
    Duration                    : 2 h 0 min
    Bit rate                    : 3 500 kb/s
    Width                       : 1 920 pixels
    Height                      : 800 pixels
    Display aspect ratio        : 2.40:1
    Frame rate mode             : Constant
    Frame rate                  : 23.976 (24000/1001) FPS
    Color space                 : YUV
    Chroma subsampling          : 4:2:0
    Bit depth                   : 8 bits
    Scan type                   : Progressive
    Bits/(Pixel*Frame)          : 0.095
    Stream size                 : 2.85 GiB (74%)
    Title                       : HD1080p [Bluray]
    Writing library             : x264 core 155 r2893 b00bcaf
    Encoding settings           : cabac=1 / ref=5 / deblock=1:0:0 / analyse=0x3:0x113 / me=hex / subme=8 / psy=1 / psy_rd=1.00:0.00 / mixed_ref=1 / me_range=16 / chroma_me=1 / trellis=2 / 8x8dct=1 / cqm=0 / deadzone=21,11 / fast_pskip=1 / chroma_qp_offset=-2 / threads=25 / lookahead_threads=4 / sliced_threads=0 / nr=0 / decimate=1 / interlaced=0 / bluray_compat=0 / constrained_intra=0 / bframes=3 / b_pyramid=2 / b_adapt=1 / b_bias=0 / direct=3 / weightb=1 / open_gop=0 / weightp=2 / keyint=240 / keyint_min=24 / scenecut=40 / intra_refresh=0 / rc_lookahead=50 / rc=abr / mbtree=1 / bitrate=3500 / ratetol=1.0 / qcomp=0.60 / qpmin=0 / qpmax=69 / qpstep=4 / vbv_maxrate=62500 / vbv_bufsize=78125 / nal_hrd=none / filler=0 / ip_ratio=1.40 / aq=1:1.00
    Default                     : Yes
    Forced                      : No
    Color range                 : Limited
    Color primaries             : BT.709
    Transfer characteristics    : BT.709
    Matrix coefficients         : BT.709
    Statistics Tags Issue       : mkvmerge v25.0.0 ('Prog Noir') 64-bit 2018-11-11 23:49:17 / mkvmerge v25.0.0 ('Prog Noir') 64-bit 2018-11-11 23:49:17 / UTC 2018-11-11T07:32:02Z
    FromStats_BitRate           : 3464417
    FromStats_Duration          : 02:00:39.232000000
    FromStats_FrameCount        : 173568
    FromStats_StreamSize        : 3134965301

    Audio #1
    ID                          : 2
    Format                      : AC-3
    Format/Info                 : Audio Coding 3
    Format settings, Endianness : Big
    Codec ID                    : A_AC3
    Duration                    : 2 h 0 min
    Bit rate mode               : Constant
    Bit rate                    : 640 kb/s
    Channel(s)                  : 6 channels
    Channel positions           : Front: L C R, Side: L R, LFE
    Sampling rate               : 48.0 kHz
    Frame rate                  : 31.250 FPS (1536 SPF)
    Bit depth                   : 16 bits
    Compression mode            : Lossy
    Stream size                 : 552 MiB (14%)
    Title                       : AC3_5.1_Bluray_Esp
    Language                    : Spanish
    Service kind                : Complete Main
    Default                     : Yes
    Forced                      : Yes
    Statistics Tags Issue       : mkvmerge v25.0.0 ('Prog Noir') 64-bit 2018-11-11 23:49:17 / mkvmerge v25.0.0 ('Prog Noir') 64-bit 2018-11-11 23:49:17 / UTC 2018-11-11T07:32:02Z
    FromStats_BitRate           : 640000
    FromStats_Duration          : 02:00:39.264000000
    FromStats_FrameCount        : 226227
    FromStats_StreamSize        : 579141120

    Audio #2
    ID                          : 3
    Format                      : AC-3
    Format/Info                 : Audio Coding 3
    Format settings, Endianness : Big
    Codec ID                    : A_AC3
    Duration                    : 2 h 0 min
    Bit rate mode               : Constant
    Bit rate                    : 448 kb/s
    Channel(s)                  : 6 channels
    Channel positions           : Front: L C R, Side: L R, LFE
    Sampling rate               : 48.0 kHz
    Frame rate                  : 31.250 FPS (1536 SPF)
    Bit depth                   : 16 bits
    Compression mode            : Lossy
    Stream size                 : 387 MiB (10%)
    Title                       : AC3_5.1_Bluray_Eng
    Language                    : English
    Service kind                : Complete Main
    Default                     : No
    Forced                      : No
    Statistics Tags Issue       : mkvmerge v25.0.0 ('Prog Noir') 64-bit 2018-11-11 23:49:17 / mkvmerge v25.0.0 ('Prog Noir') 64-bit 2018-11-11 23:49:17 / UTC 2018-11-11T07:32:02Z
    FromStats_BitRate           : 448000
    FromStats_Duration          : 02:00:39.232000000
    FromStats_FrameCount        : 226226
    FromStats_StreamSize        : 405396992

    Text #1
    ID                          : 4
    Format                      : UTF-8
    Codec ID                    : S_TEXT/UTF8
    Codec ID/Info               : UTF-8 Plain Text
    Title                       : Sub_Esp
    Language                    : Spanish
    Default                     : Yes
    Forced                      : No
    Statistics Tags Issue       : mkvmerge v25.0.0 ('Prog Noir') 64-bit 2018-11-11 23:49:17 / mkvmerge v25.0.0 ('Prog Noir') 64-bit 2018-11-11 23:49:17 / UTC 2018-11-11T07:32:02Z
    FromStats_BitRate           : 74
    FromStats_Duration          : 01:56:41.455000000
    FromStats_FrameCount        : 2009
    FromStats_StreamSize        : 65372

    Text #2
    ID                          : 5
    Format                      : UTF-8
    Codec ID                    : S_TEXT/UTF8
    Codec ID/Info               : UTF-8 Plain Text
    Title                       : Sub_Eng
    Language                    : English
    Default                     : No
    Forced                      : No
    Statistics Tags Issue       : mkvmerge v25.0.0 ('Prog Noir') 64-bit 2018-11-11 23:49:17 / mkvmerge v25.0.0 ('Prog Noir') 64-bit 2018-11-11 23:49:17 / UTC 2018-11-11T07:32:02Z
    FromStats_BitRate           : 73
    FromStats_Duration          : 01:55:47.376000000
    FromStats_FrameCount        : 2068
    FromStats_StreamSize        : 64102

    Menu
    00:00:00.000                : :00:00:00.000
    00:11:28.938                : :00:11:28.938
    00:19:07.396                : :00:19:07.396
    00:28:22.534                : :00:28:22.534
    00:40:52.200                : :00:40:52.158
    00:51:29.420                : :00:51:29.253
    01:02:17.359                : :01:02:17.359
    01:11:31.537                : :01:11:31.537
    01:22:17.891                : :01:22:17.891
    01:32:04.310                : :01:32:04.269
    01:41:37.341                : :01:41:37.341
    01:53:54.202                : :01:53:54.036

  • Peso: 3.84 GiB

Sinopsis

Locamente Millonarios (2018) 1080p Latino; Mega, Google Drive. Rachel Chu es profesora de economía en la Universidad de Nueva York, allí conoce a Nick Young -profesor de historia- y se enamoran. Ambos tienen que viajar a la ciudad natal de Nick, Singapur, para asistir a la boda de su mejor amigo. Es allí cuando Rachel descubre que su novio pertenece a una de las familias más ricas de Asia y que todas las solteras de clase alta están increíblemente celosas de ella. La joven tendrá que enfrentarse a todas ellas y demostrar a la familia de su novio que ella también es digna de estar con él.

Ficha técnica

  • Titulo original: Crazy Rich Asians
  • Fecha de lanzamiento: 15-08-2018 (United States of America)
  • Director: Jon M. Chu
  • Género: Comedia, Drama, HD 1080p, Romance
  • Puntuación: 5.0 1 votos
  • Duración:
    2h 0m

Video trailer de la película

Enlaces de descarga

Rip de Bluray

Descargar Locamente Millonarios (2018) 1080p Latino




Aportes de DPeliculasHDmega la pass es:dpeliculashdmega.org Aportes de CinemaniaHD la pass es:cinemaniahdd.com
Guardado en : Comedia , Drama , HD 1080p , Romance

Películas relacionadas

  • Verónica (2017) HD 1080p Español

    2017
    Verónica (2017) HD 1080p Español

    0.0 1h 45m 2017

    Descargar Verónica (2017) HD 1080p Español, Mega, Google Drive, Torrent. Está inspirada en el único...

    Director: Paco Plaza

    Actores: Sonia Almarcha

  • El Reino (2018) HD 1080p Español

    2018
    El Reino (2018) HD 1080p Español

    0.0 2h 15m 2018

    Descargar El Reino (2018) HD 1080p Español, Mega, Google Drive, Torrent. Manuel (Antonio de la Torre),...

    Director: Rodrigo Sorogoyen

    Actores: Paco Revilla

  • Campeones (2018) HD 1080p Español

    2018
    Campeones (2018) HD 1080p Español

    0.0 2h 4m 2018

    Descargar Campeones (2018) HD 1080p Español, Mega, Google Drive, Torrent. Marco, un entrenador profesional...

    Director: Javier Fesser

    Actores: Yiyo Alonso

Comentarios 0