×

¿Problemas para descargar con Mozilla, EDGE? Deshabilita la opción "Abrir vinculos en una pestaña nueva" tal como lo muestra ésta imagen.

Crazy, Not Insane (2020) HMAX WEB-DL 1080p Latino

328 vistas

Información de Crazy, Not Insane (2020) HMAX WEB-DL 1080p Latino

Datos de la película

  • Calidad: WEBDL
  • Audio: Español Latino AC3 2.0 WEB-DL - Ingles AC3 5.1 WEB-DL
  • Subtitulos: Español Latino SRT- FORZADOS SRT
  • Resolución: 1920x1080
  • Formato: MKV
  • Codec: H.264
  • Encoder: cinemaniahdd
  • Mediainfo: Clic para Mostrar Datos Ver
  • Crazy, Not Insane (2020) HMAX WEB-DL 1080p Latino [CNMNHDD].mkv
    Format                      : Matroska
    Format version              : Version 4
    File size                   : 7.32 GiB
    Duration                    : 1 h 58 min
    Overall bit rate mode       : Variable
    Overall bit rate            : 8 873 kb/s
    Movie name                  : Loco, No Demente (2020) - CinemaniaHDD.Net
    Encoded date                : UTC 2020-11-25 18:52:46
    Writing application         : mkvmerge v51.0.0 ('I Wish') 64-bit
    Writing library             : libebml v1.4.0 + libmatroska v1.6.2

    Video
    ID                          : 1
    Format                      : AVC
    Format/Info                 : Advanced Video Codec
    Format profile              : High@L4
    Format settings             : CABAC / 4 Ref Frames
    Format settings, CABAC      : Yes
    Format settings, Reference  : 4 frames
    Codec ID                    : V_MPEG4/ISO/AVC
    Duration                    : 1 h 58 min
    Bit rate mode               : Variable
    Bit rate                    : 8 231 kb/s
    Maximum bit rate            : 12.4 Mb/s
    Width                       : 1 920 pixels
    Height                      : 1 080 pixels
    Display aspect ratio        : 16:9
    Frame rate mode             : Constant
    Frame rate                  : 23.976 (24000/1001) FPS
    Color space                 : YUV
    Chroma subsampling          : 4:2:0
    Bit depth                   : 8 bits
    Scan type                   : Progressive
    Bits/(Pixel*Frame)          : 0.166
    Stream size                 : 6.79 GiB (93%)
    Title                       : CinemaniaHDD
    Language                    : English
    Default                     : Yes
    Forced                      : No
    Color range                 : Limited
    Color primaries             : BT.709
    Transfer characteristics    : BT.709
    Matrix coefficients         : BT.709

    Audio #1
    ID                          : 2
    Format                      : AC-3
    Format/Info                 : Audio Coding 3
    Commercial name             : Dolby Digital
    Codec ID                    : A_AC3
    Duration                    : 1 h 58 min
    Bit rate mode               : Constant
    Bit rate                    : 256 kb/s
    Channel(s)                  : 2 channels
    Channel layout              : L R
    Sampling rate               : 48.0 kHz
    Frame rate                  : 31.250 FPS (1536 SPF)
    Compression mode            : Lossy
    Stream size                 : 216 MiB (3%)
    Title                       : Español latino [CinemaniaHDD]
    Language                    : Spanish
    Service kind                : Complete Main
    Default                     : Yes
    Forced                      : No

    Audio #2
    ID                          : 3
    Format                      : AC-3
    Format/Info                 : Audio Coding 3
    Commercial name             : Dolby Digital
    Codec ID                    : A_AC3
    Duration                    : 1 h 58 min
    Bit rate mode               : Constant
    Bit rate                    : 384 kb/s
    Channel(s)                  : 6 channels
    Channel layout              : L R C LFE Ls Rs
    Sampling rate               : 48.0 kHz
    Frame rate                  : 31.250 FPS (1536 SPF)
    Compression mode            : Lossy
    Stream size                 : 324 MiB (4%)
    Title                       : Inglés [CinemaniaHDD]
    Language                    : English
    Service kind                : Complete Main
    Default                     : No
    Forced                      : No

    Text #1
    ID                          : 4
    Format                      : UTF-8
    Codec ID                    : S_TEXT/UTF8
    Codec ID/Info               : UTF-8 Plain Text
    Duration                    : 1 s 80 ms
    Bit rate                    : 74 b/s
    Count of elements           : 1
    Stream size                 : 10.0 Bytes (0%)
    Title                       : Forzados [CinemaniaHDD]
    Language                    : Spanish
    Default                     : Yes
    Forced                      : Yes

    Text #2
    ID                          : 5
    Format                      : UTF-8
    Codec ID                    : S_TEXT/UTF8
    Codec ID/Info               : UTF-8 Plain Text
    Duration                    : 1 h 56 min
    Bit rate                    : 85 b/s
    Count of elements           : 1967
    Stream size                 : 73.0 KiB (0%)
    Title                       : Español latino [CinemaniaHDD]
    Language                    : Spanish
    Default                     : No
    Forced                      : No

    Text #3
    ID                          : 6
    Format                      : UTF-8
    Codec ID                    : S_TEXT/UTF8
    Codec ID/Info               : UTF-8 Plain Text
    Duration                    : 1 h 57 min
    Bit rate                    : 105 b/s
    Count of elements           : 3846
    Stream size                 : 90.6 KiB (0%)
    Title                       : Inglés [CC] [CinemaniaHDD]
    Language                    : English
    Default                     : No
    Forced                      : No

     

  • Peso: 7.32 GiB

Sinopsis

El ganador del Óscar® Alex Gibney nos trae un escalofriante documental de psicología criminal que ahonda en la mente del asesino. Basándose en las investigaciones de la psiquiatra forense Dorothy Otnow Lewis, quien ha entrevistado a asesinos en serie como Ted Bundy, el filme busca descifrar el porqué, más que el cómo, de los crímenes violentos.

Ficha técnica

  • Titulo original: Crazy, Not Insane
  • Fecha de lanzamiento: 18-03-2020 (United States of America)
  • Director: Alex Gibney
  • Género: Documental, HBO

Video trailer de la película

Enlaces de descarga

Rip de Bluray

Descargar Crazy, Not Insane (2020) HMAX WEB-DL 1080p Latino




Aportes de DPeliculasHDmega la pass es:dpeliculashdmega.org Aportes de CinemaniaHD la pass es:cinemaniahdd.com
Guardado en : Documental , HBO

Películas relacionadas

descargar Crazy, Not Insane (2020) HMAX WEB-DL 1080p Latino WEBDL 1080p gratis, Crazy, Not Insane (2020) HMAX WEB-DL 1080p Latino WEBDL mega 1 link, Crazy, Not Insane (2020) HMAX WEB-DL 1080p Latino WEBDL pelicula completa, descargar Crazy, Not Insane (2020) HMAX WEB-DL 1080p Latino WEBDL gratis en mega.

Crazy, Not Insane (2020) HMAX WEB-DL 1080p Latino pelicula full hd, Crazy, Not Insane (2020) HMAX WEB-DL 1080p Latino mega latino, Crazy, Not Insane (2020) HMAX WEB-DL 1080p Latino 4k latino, Crazy, Not Insane (2020) HMAX WEB-DL 1080p Latino pelicula completa, Crazy, Not Insane (2020) HMAX WEB-DL 1080p Latino descargar gratis, descargar Crazy, Not Insane (2020) HMAX WEB-DL 1080p Latino pelicula latino, Crazy, Not Insane (2020) HMAX WEB-DL 1080p Latino 1 link mega, Crazy, Not Insane (2020) HMAX WEB-DL 1080p Latino 1 link google drive, Crazy, Not Insane (2020) HMAX WEB-DL 1080p Latino hd 1080p latino.
Comentarios 0