×

¿Problemas para descargar con Mozilla, EDGE? Deshabilita la opción "Abrir vinculos en una pestaña nueva" tal como lo muestra ésta imagen.

Crawl: Infierno en la Tormenta (2019) 1080p Latino

1.617 vistas

Información de Crawl: Infierno en la Tormenta (2019) 1080p Latino

Datos de la película

  • Calidad:
  • Audio: Español Latino AC3 5.1 BLURAY - Ingles AC3 5.1 BLURAY
  • Subtitulos: Español Latino SRT- FORZADOS SRT
  • Resolución: 1920x804
  • Formato: MKV
  • Codec: H.264
  • Encoder: cinemaniahdd
  • Mediainfo: Clic para Mostrar Datos Ver
  • Infierno en la Tormenta (2019) 1080p Latino.mkv
    Format                      : Matroska
    Format version              : Version 4
    File size                   : 2.78 GiB
    Duration                    : 1 h 27 min
    Overall bit rate            : 4 543 kb/s
    Movie name                  : Infierno en la Tormenta (2019) - CinemaniaHDD.Net
    Encoded date                : UTC 2019-10-03 23:55:25
    Writing application         : mkvmerge v35.0.0 ('All The Love In The World') 64-bit
    Writing library             : libebml v1.3.9 + libmatroska v1.5.2

    Video
    ID                          : 1
    Format                      : AVC
    Format/Info                 : Advanced Video Codec
    Format profile              : Main@L4
    Format settings             : CABAC / 4 Ref Frames
    Format settings, CABAC      : Yes
    Format settings, ReFrames   : 4 frames
    Codec ID                    : V_MPEG4/ISO/AVC
    Duration                    : 1 h 27 min
    Bit rate                    : 3 500 kb/s
    Width                       : 1 920 pixels
    Height                      : 804 pixels
    Display aspect ratio        : 2.40:1
    Frame rate mode             : Constant
    Frame rate                  : 23.976 (24000/1001) FPS
    Color space                 : YUV
    Chroma subsampling          : 4:2:0
    Bit depth                   : 8 bits
    Scan type                   : Progressive
    Bits/(Pixel*Frame)          : 0.095
    Stream size                 : 2.11 GiB (76%)
    Title                       : CinemaniaHDD
    Writing library             : x264 core 157 r2935 545de2f
    Encoding settings           : cabac=1 / ref=3 / deblock=1:0:0 / analyse=0x1:0x111 / me=hex / subme=7 / psy=1 / psy_rd=1.00:0.00 / mixed_ref=1 / me_range=16 / chroma_me=1 / trellis=1 / 8x8dct=0 / cqm=0 / deadzone=21,11 / fast_pskip=1 / chroma_qp_offset=-2 / threads=25 / lookahead_threads=4 / sliced_threads=0 / nr=0 / decimate=1 / interlaced=0 / bluray_compat=0 / constrained_intra=0 / bframes=3 / b_pyramid=2 / b_adapt=1 / b_bias=0 / direct=1 / weightb=1 / open_gop=0 / weightp=2 / keyint=240 / keyint_min=24 / scenecut=40 / intra_refresh=0 / rc_lookahead=40 / rc=abr / mbtree=1 / bitrate=3500 / ratetol=1.0 / qcomp=0.60 / qpmin=0 / qpmax=69 / qpstep=4 / vbv_maxrate=20000 / vbv_bufsize=25000 / nal_hrd=none / filler=0 / ip_ratio=1.40 / aq=1:1.00
    Default                     : Yes
    Forced                      : No
    Color range                 : Limited
    Color primaries             : BT.709
    Transfer characteristics    : BT.709
    Matrix coefficients         : BT.709

    Audio #1
    ID                          : 2
    Format                      : AC-3
    Format/Info                 : Audio Coding 3
    Commercial name             : Dolby Digital
    Codec ID                    : A_AC3
    Duration                    : 1 h 27 min
    Bit rate mode               : Constant
    Bit rate                    : 640 kb/s
    Channel(s)                  : 6 channels
    Channel layout              : L R C LFE Ls Rs
    Sampling rate               : 48.0 kHz
    Frame rate                  : 31.250 FPS (1536 SPF)
    Bit depth                   : 16 bits
    Compression mode            : Lossy
    Delay relative to video     : 14 ms
    Stream size                 : 401 MiB (14%)
    Title                       : Español latino [CinemaniaHDD]
    Language                    : Spanish
    Service kind                : Complete Main
    Default                     : Yes
    Forced                      : No

    Audio #2
    ID                          : 3
    Format                      : AC-3
    Format/Info                 : Audio Coding 3
    Commercial name             : Dolby Digital
    Codec ID                    : A_AC3
    Duration                    : 1 h 27 min
    Bit rate mode               : Constant
    Bit rate                    : 448 kb/s
    Channel(s)                  : 6 channels
    Channel layout              : L R C LFE Ls Rs
    Sampling rate               : 48.0 kHz
    Frame rate                  : 31.250 FPS (1536 SPF)
    Bit depth                   : 16 bits
    Compression mode            : Lossy
    Delay relative to video     : 9 ms
    Stream size                 : 280 MiB (10%)
    Title                       : Inglés [CinemaniaHDD]
    Language                    : English
    Service kind                : Complete Main
    Default                     : No
    Forced                      : No

    Text #1
    ID                          : 4
    Format                      : UTF-8
    Codec ID                    : S_TEXT/UTF8
    Codec ID/Info               : UTF-8 Plain Text
    Duration                    : 1 h 2 min
    Bit rate                    : 0 b/s
    Count of elements           : 9
    Stream size                 : 265 Bytes (0%)
    Title                       : Forzados [CinemaniaHDD]
    Language                    : Spanish
    Default                     : Yes
    Forced                      : Yes

    Text #2
    ID                          : 5
    Format                      : UTF-8
    Codec ID                    : S_TEXT/UTF8
    Codec ID/Info               : UTF-8 Plain Text
    Duration                    : 1 h 18 min
    Bit rate                    : 24 b/s
    Count of elements           : 578
    Stream size                 : 14.4 KiB (0%)
    Title                       : Español latino [CinemaniaHDD]
    Language                    : Spanish
    Default                     : No
    Forced                      : No

    Menu
    00:00:00.000                : :Chapter 1
    00:07:51.846                : :Chapter 2
    00:15:16.416                : :Chapter 3
    00:22:15.501                : :Chapter 4
    00:34:43.081                : :Chapter 5
    00:42:15.283                : :Chapter 6
    00:50:13.219                : :Chapter 7
    00:57:13.263                : :Chapter 8
    01:03:51.661                : :Chapter 9
    01:08:56.299                : :Chapter 10
    01:16:36.467                : :Chapter 11
    01:23:10.861                : :Chapter 12

     

  • Peso: 2.78 GiB

Sinopsis

Una mujer (Kaya Scodelario) lucha por salvar a su padre cuando se produce en Florida un huracán de categoria 5. Sin embargo, mientras ambos tratan de huir la tormenta les deja encerrados detro de una casa que se inunda y en la que tendrán que hacer frente a una legión de extraños depredadores.

Ficha técnica

Video trailer de la película

Enlaces de descarga

Rip de Bluray

Descargar Crawl: Infierno en la Tormenta (2019) 1080p Latino




Aportes de DPeliculasHDmega la pass es:dpeliculashdmega.org Aportes de CinemaniaHD la pass es:cinemaniahdd.com
Guardado en : Acción , Drama , HD 1080p , Suspenso , Terror

Películas relacionadas

descargar Crawl: Infierno en la Tormenta (2019) 1080p Latino 1080p gratis, Crawl: Infierno en la Tormenta (2019) 1080p Latino mega 1 link, Crawl: Infierno en la Tormenta (2019) 1080p Latino pelicula completa, descargar Crawl: Infierno en la Tormenta (2019) 1080p Latino gratis en mega.

Crawl: Infierno en la Tormenta (2019) 1080p Latino pelicula full hd, Crawl: Infierno en la Tormenta (2019) 1080p Latino mega latino, Crawl: Infierno en la Tormenta (2019) 1080p Latino 4k latino, Crawl: Infierno en la Tormenta (2019) 1080p Latino pelicula completa, Crawl: Infierno en la Tormenta (2019) 1080p Latino descargar gratis, descargar Crawl: Infierno en la Tormenta (2019) 1080p Latino pelicula latino, Crawl: Infierno en la Tormenta (2019) 1080p Latino 1 link mega, Crawl: Infierno en la Tormenta (2019) 1080p Latino 1 link google drive, Crawl: Infierno en la Tormenta (2019) 1080p Latino hd 1080p latino.
Comentarios 0