Crash Pad (2017) WEB-DL 1080p Latino

745 vistas
1 estrella2 estrellas3 estrellas4 estrellas5 estrellas (1 votos, promedio: 5,00 de 5)
Cargando…

Información de Crash Pad (2017) WEB-DL 1080p Latino

Datos de la película

  • Calidad: WEBDL
  • Audio: Español Latino AC3 5.1 iTunes - Ingles AC3 5.1 iTunes
  • Subtitulos: No
  • Resolución: 1920X804
  • Formato: MKV
  • Codec: H.264
  • Encoder: Dpelis
  • Mediainfo: Clic para Mostrar Datos Ver
  • Format                                   : Matroska
    Format version                           : Version 4 / Version 2
    File size                                : 3.48 GiB
    Duration                                 : 1 h 33 min
    Overall bit rate                         : 5 338 kb/s
    Movie name                               : dpeliculashdmega.org
    Encoded date                             : UTC 2017-11-23 06:51:16
    Writing application                      : mkvmerge v15.0.0 ('Duel with the Devil') 64-bit
    Writing library                          : libebml v1.3.5 + libmatroska v1.4.5
    Cover                                    : Yes
    Attachments                              : small_cover_land.jpg / cover.jpg / cover_land.jpg / small_cover.jpg

    Video
    ID                                       : 1
    Format                                   : AVC
    Format/Info                              : Advanced Video Codec
    Format profile                           : [email protected]
    Format settings                          : CABAC / 5 Ref Frames
    Format settings, CABAC                   : Yes
    Format settings, RefFrames               : 5 frames
    Codec ID                                 : V_MPEG4/ISO/AVC
    Duration                                 : 1 h 33 min
    Bit rate                                 : 4 569 kb/s
    Width                                    : 1 920 pixels
    Height                                   : 804 pixels
    Display aspect ratio                     : 2.40:1
    Frame rate mode                          : Constant
    Frame rate                               : 23.976 (23976/1000) FPS
    Color space                              : YUV
    Chroma subsampling                       : 4:2:0
    Bit depth                                : 8 bits
    Scan type                                : Progressive
    Bits/(Pixel*Frame)                       : 0.123
    Stream size                              : 2.98 GiB (86%)
    Title                                    : Crash Pad (2017) WEB-DL 1080p Latino
    Language                                 : English
    Default                                  : Yes
    Forced                                   : No
    Color range                              : Limited
    Color primaries                          : BT.709
    Transfer characteristics                 : BT.709
    Matrix coefficients                      : BT.709

    Audio #1
    ID                                       : 2
    Format                                   : AC-3
    Format/Info                              : Audio Coding 3
    Format settings, Endianness              : Big
    Codec ID                                 : A_AC3
    Duration                                 : 1 h 33 min
    Bit rate mode                            : Constant
    Bit rate                                 : 384 kb/s
    Channel(s)                               : 6 channels
    Channel positions                        : Front: L C R, Side: L R, LFE
    Sampling rate                            : 48.0 kHz
    Frame rate                               : 31.250 FPS (1536 SPF)
    Bit depth                                : 16 bits
    Compression mode                         : Lossy
    Delay relative to video                  : -43 ms
    Stream size                              : 256 MiB (7%)
    Title                                    : Latino-AC3
    Language                                 : Spanish
    Service kind                             : Complete Main
    Default                                  : Yes
    Forced                                   : No

    Audio #2
    ID                                       : 3
    Format                                   : AC-3
    Format/Info                              : Audio Coding 3
    Format settings, Endianness              : Big
    Codec ID                                 : A_AC3
    Duration                                 : 1 h 33 min
    Bit rate mode                            : Constant
    Bit rate                                 : 384 kb/s
    Channel(s)                               : 6 channels
    Channel positions                        : Front: L C R, Side: L R, LFE
    Sampling rate                            : 48.0 kHz
    Frame rate                               : 31.250 FPS (1536 SPF)
    Bit depth                                : 16 bits
    Compression mode                         : Lossy
    Delay relative to video                  : -43 ms
    Stream size                              : 256 MiB (7%)
    Title                                    : Ingles-AC3
    Language                                 : English
    Service kind                             : Complete Main
    Default                                  : No
    Forced                                   : No

    Menu
    00:00:00.000                             : en:1
    00:06:02.487                             : en:2
    00:11:05.706                             : en:3
    00:16:22.105                             : en:4
    00:22:13.623                             : en:5
    00:28:15.443                             : en:6
    00:32:13.347                             : en:7
    00:38:15.083                             : en:8
    00:44:03.222                             : en:9
    00:50:01.538                             : en:10
    00:54:30.557                             : en:11
    01:01:33.688                             : en:12
    01:05:48.901                             : en:13
    01:12:32.137                             : en:14
    01:16:51.396                             : en:15
    01:22:24.479                             : en:16

     

  • Peso: 3.48 GiB

Sinopsis

Un romántico sin esperanza que cree que ha encontrado el amor verdadero con una mujer mayor, solo para descubrir que está casada y que su aventura no es más que un instrumento de venganza contra su marido negligente.

Ficha técnica

  • Titulo original: Crash Pad
  • Fecha de lanzamiento: 27-10-2017
  • Director: Kevin Tent
  • Género: Comedia
  • Puntuación: 5.0 1 votos
  • Duración:
    1 h 33 min

Video trailer de la película

Enlaces de descarga

Rip de Bluray

Descargar Crash Pad (2017) WEB-DL 1080p Latino




Aportes de DPeliculasHDmega la pass es:dpeliculashdmega.org Aportes de CinemaniaHD la pass es:cinemaniahdd.com
Guardado en : Comedia

Películas relacionadas

  • Yucatán (2018) NF WEB-DL 1080p Castellano

    2018
    Yucatán (2018) NF WEB-DL 1080p Castellano

    0.0 2h 10m 2018

    Lucas (Luis Tosar) y Clayderman (Rodrigo de la Serna) son dos estafadores que se dedican a timar a turistas...

    Director: Daniel Monzón

    Género: Castellano

    Actores: Xavier Lite

  • Ralph rompe Internet (2018) 1080p Latino

    2018
    Ralph rompe Internet (2018) 1080p Latino

    4.5 1h 52m 2018

    Ralph sale de los recreativos y... ¡rompe Internet! ¿Qué podría salir mal? La secuela de "Rompe Ralph"...

    Director: Rich Moore

    Género: Animación

    Actores: Wayne Sermon

  • The Happy Prince (2018) 1080p Latino

    2018
    The Happy Prince (2018) 1080p Latino

    0.0 1h 44m 2018

    Se centra en los últimos tres años de Oscar Wilde (1897–1900). Wilde, recluido en un hotel de Francia...

    Director: Rupert Everett

    Género: Comedia

    Actores: Tom Wilkinson

Comentarios 0