×

¿Problemas para descargar con Mozilla, EDGE? Deshabilita la opción "Abrir vinculos en una pestaña nueva" tal como lo muestra ésta imagen.

Coyote (TV Series 2021) Primera Temporada WEB-DL 1080p Latino – CMHDD

287 vistas

Información de Coyote (TV Series 2021) Primera Temporada WEB-DL 1080p Latino – CMHDD

Datos de la película

  • Calidad: 1080p
  • Audio: Español Latino AC3 2.0 WEB-DL - Ingles AC3 2.0 WEB-DL
  • Subtitulos: Español Latino SRT
  • Resolución: 1920x1080p
  • Formato: MKV
  • Codec: H.264
  • Encoder: Dracarys
  • Mediainfo: Clic para Mostrar Datos Ver
  • Format                      : Matroska
    Format version              : Version 4
    File size                   : 2.49 GiB
    Duration                    : 55 min 53 s
    Overall bit rate            : 6 386 kb/s
    Movie name                  : Coyote (TV Series 2021) [S01E01] WEB-DL 1080p Latino - CMHDD
    Encoded date                : UTC 2022-03-06 23:35:17
    Writing application         : mkvmerge v17.0.0 ('Be Ur Friend') 64-bit
    Writing library             : libebml v1.3.5 + libmatroska v1.4.8

    Video
    ID                          : 1
    Format                      : AVC
    Format/Info                 : Advanced Video Codec
    Format profile              : High@L4
    Format settings             : 1 Ref Frames
    Format settings, CABAC      : No
    Format settings, Reference  : 1 frame
    Codec ID                    : V_MPEG4/ISO/AVC
    Duration                    : 55 min 53 s
    Bit rate mode               : Constant
    Bit rate                    : 6 000 kb/s
    Width                       : 1 920 pixels
    Height                      : 1 080 pixels
    Display aspect ratio        : 16:9
    Frame rate mode             : Constant
    Frame rate                  : 29.970 (30000/1001) FPS
    Standard                    : Component
    Color space                 : YUV
    Chroma subsampling          : 4:2:0
    Bit depth                   : 8 bits
    Scan type                   : Progressive
    Bits/(Pixel*Frame)          : 0.097
    Stream size                 : 2.34 GiB (94%)
    Default                     : Yes
    Forced                      : No
    Color range                 : Limited
    Color primaries             : BT.601 NTSC
    Transfer characteristics    : BT.601
    Matrix coefficients         : BT.601

    Audio #1
    ID                          : 2
    Format                      : E-AC-3
    Format/Info                 : Enhanced AC-3
    Commercial name             : Dolby Digital Plus
    Codec ID                    : A_EAC3
    Duration                    : 55 min 53 s
    Bit rate mode               : Constant
    Bit rate                    : 192 kb/s
    Channel(s)                  : 2 channels
    Channel layout              : L R
    Sampling rate               : 48.0 kHz
    Frame rate                  : 31.250 FPS (1536 SPF)
    Compression mode            : Lossy
    Stream size                 : 76.8 MiB (3%)
    Title                       : Spanish
    Language                    : Spanish
    Service kind                : Complete Main
    Default                     : Yes
    Forced                      : No

    Audio #2
    ID                          : 3
    Format                      : E-AC-3
    Format/Info                 : Enhanced AC-3
    Commercial name             : Dolby Digital Plus
    Codec ID                    : A_EAC3
    Duration                    : 55 min 53 s
    Bit rate mode               : Constant
    Bit rate                    : 192 kb/s
    Channel(s)                  : 2 channels
    Channel layout              : L R
    Sampling rate               : 48.0 kHz
    Frame rate                  : 31.250 FPS (1536 SPF)
    Compression mode            : Lossy
    Stream size                 : 76.8 MiB (3%)
    Title                       : English
    Language                    : English
    Service kind                : Complete Main
    Default                     : No
    Forced                      : No

    Text
    ID                          : 4
    Format                      : UTF-8
    Codec ID                    : S_TEXT/UTF8
    Codec ID/Info               : UTF-8 Plain Text
    Duration                    : 48 min 47 s
    Bit rate                    : 44 b/s
    Count of elements           : 492
    Stream size                 : 15.9 KiB (0%)
    Language                    : Spanish
    Default                     : No
    Forced                      : No

  • Peso: 12.8 GiB

Sinopsis

Tras 32 años de servicio, el agente de fronteras Ben Clemens (Michael Chiklis) se da cuenta de que en el fondo está ayudando al tipo de gente que ha tratado siempre de mantener fuera de los Estados Unidos.

Ficha técnica

Video trailer de la película

Enlaces de descarga

Rip de Bluray

Descargar Coyote (TV Series 2021) Primera Temporada WEB-DL 1080p Latino – CMHDD




Aportes de DPeliculasHDmega la pass es:dpeliculashdmega.org Aportes de CinemaniaHD la pass es:cinemaniahdd.com
Guardado en : Crimen , Drama , Series

Películas relacionadas

descargar Coyote (TV Series 2021) Primera Temporada WEB-DL 1080p Latino – CMHDD 1080p 1080p gratis, Coyote (TV Series 2021) Primera Temporada WEB-DL 1080p Latino – CMHDD 1080p mega 1 link, Coyote (TV Series 2021) Primera Temporada WEB-DL 1080p Latino – CMHDD 1080p serie completa, descargar Coyote (TV Series 2021) Primera Temporada WEB-DL 1080p Latino – CMHDD 1080p gratis en mega.

Coyote (TV Series 2021) Primera Temporada WEB-DL 1080p Latino – CMHDD pelicula full hd, Coyote (TV Series 2021) Primera Temporada WEB-DL 1080p Latino – CMHDD mega latino, Coyote (TV Series 2021) Primera Temporada WEB-DL 1080p Latino – CMHDD 4k latino, Coyote (TV Series 2021) Primera Temporada WEB-DL 1080p Latino – CMHDD pelicula completa, Coyote (TV Series 2021) Primera Temporada WEB-DL 1080p Latino – CMHDD descargar gratis, descargar Coyote (TV Series 2021) Primera Temporada WEB-DL 1080p Latino – CMHDD pelicula latino, Coyote (TV Series 2021) Primera Temporada WEB-DL 1080p Latino – CMHDD 1 link mega, Coyote (TV Series 2021) Primera Temporada WEB-DL 1080p Latino – CMHDD 1 link google drive, Coyote (TV Series 2021) Primera Temporada WEB-DL 1080p Latino – CMHDD hd 1080p latino.
Comentarios 0