×

¿Problemas para descargar con Mozilla, EDGE? Deshabilita la opción "Abrir vinculos en una pestaña nueva" tal como lo muestra ésta imagen.

Cowboys & Aliens (2011) EXTENDED Full HD 1080p Latino-CMHDD

225 vistas

Información de Cowboys & Aliens (2011) EXTENDED Full HD 1080p Latino-CMHDD

Datos de la película

  • Calidad: Full 1080p
  • Audio: Español Latino DTS 5.1 BLURAY - Ingles DTS 5.1 BLURAY
  • Subtitulos: Español Latino PGS - Ingles PGS
  • Resolución: 1920x1080p
  • Formato: MKV
  • Codec: H.264
  • Encoder: CinefiloCool
  • Mediainfo: Clic para Mostrar Datos Ver
  • Cowboys & Aliens (2011) EXTENDED Full HD 1080p Latino-CMHDD.mkv
    Format                      : Matroska
    Format version              : Version 4
    File size                   : 6.92 GiB
    Duration                    : 2 h 15 min
    Overall bit rate            : 7 321 kb/s
    Movie name                  : Cowboys & Aliens (2011) CinemaniaHDD.Net
    Encoded date                : UTC 2023-12-05 06:01:17
    Writing application         : mkvmerge v56.1.0 ('My Friend') 64-bit
    Writing library             : libebml v1.4.2 + libmatroska v1.6.4
    Attachments                 : CINEMANIAHD.png

    Video
    ID                          : 1
    Format                      : AVC
    Format/Info                 : Advanced Video Codec
    Format profile              : High@L4.1
    Format settings             : CABAC / 4 Ref Frames
    Format settings, CABAC      : Yes
    Format settings, Reference  : 4 frames
    Codec ID                    : V_MPEG4/ISO/AVC
    Duration                    : 2 h 15 min
    Bit rate                    : 5 029 kb/s
    Width                       : 1 920 pixels
    Height                      : 1 080 pixels
    Display aspect ratio        : 16:9
    Frame rate mode             : Constant
    Frame rate                  : 23.976 (24000/1001) FPS
    Color space                 : YUV
    Chroma subsampling          : 4:2:0
    Bit depth                   : 8 bits
    Scan type                   : Progressive
    Bits/(Pixel*Frame)          : 0.101
    Stream size                 : 4.75 GiB (69%)
    Title                       : Full HD1080p [CinemaniaHDD]
    Writing library             : x264 core 163 r3059 b684ebe0
    Encoding settings           : cabac=1 / ref=4 / deblock=1:0:0 / analyse=0x3:0x133 / me=tesa / subme=11 / psy=1 / psy_rd=1.00:0.00 / mixed_ref=1 / me_range=24 / chroma_me=1 / trellis=2 / 8x8dct=1 / cqm=0 / deadzone=21,11 / fast_pskip=0 / chroma_qp_offset=-2 / threads=24 / lookahead_threads=6 / sliced_threads=0 / nr=0 / decimate=1 / interlaced=0 / bluray_compat=0 / constrained_intra=0 / bframes=16 / b_pyramid=2 / b_adapt=2 / b_bias=0 / direct=3 / weightb=1 / open_gop=0 / weightp=2 / keyint=240 / keyint_min=24 / scenecut=40 / intra_refresh=0 / rc_lookahead=60 / rc=crf / mbtree=1 / crf=20.0 / qcomp=0.60 / qpmin=0 / qpmax=69 / qpstep=4 / vbv_maxrate=62500 / vbv_bufsize=78125 / crf_max=0.0 / nal_hrd=none / filler=0 / ip_ratio=1.40 / aq=1:1.00
    Default                     : Yes
    Forced                      : Yes
    Color range                 : Limited
    Color primaries             : BT.709
    Transfer characteristics    : BT.709
    Matrix coefficients         : BT.709

    Audio #1
    ID                          : 2
    Format                      : DTS
    Format/Info                 : Digital Theater Systems
    Codec ID                    : A_DTS
    Duration                    : 2 h 15 min
    Bit rate mode               : Constant
    Bit rate                    : 768 kb/s
    Channel(s)                  : 6 channels
    Channel layout              : C L R Ls Rs LFE
    Sampling rate               : 48.0 kHz
    Frame rate                  : 93.750 FPS (512 SPF)
    Bit depth                   : 24 bits
    Compression mode            : Lossy
    Stream size                 : 743 MiB (10%)
    Title                       : Español Latino [CinemaniaHDD]
    Language                    : Spanish
    Default                     : Yes
    Forced                      : Yes

    Audio #2
    ID                          : 3
    Format                      : DTS
    Format/Info                 : Digital Theater Systems
    Codec ID                    : A_DTS
    Duration                    : 2 h 15 min
    Bit rate mode               : Constant
    Bit rate                    : 1 509 kb/s
    Channel(s)                  : 6 channels
    Channel layout              : C L R Ls Rs LFE
    Sampling rate               : 48.0 kHz
    Frame rate                  : 93.750 FPS (512 SPF)
    Bit depth                   : 24 bits
    Compression mode            : Lossy
    Stream size                 : 1.43 GiB (21%)
    Title                       : Ingles [CinemaniaHDD]
    Language                    : English
    Default                     : No
    Forced                      : No

    Text #1
    ID                          : 4
    Format                      : PGS
    Muxing mode                 : zlib
    Codec ID                    : S_HDMV/PGS
    Codec ID/Info               : Picture based subtitle format used on BDs/HD-DVDs
    Duration                    : 2 h 15 min
    Bit rate                    : 30 b/s
    Count of elements           : 48
    Stream size                 : 30.5 KiB (0%)
    Title                       : Forzados-PGS [CinemaniaHDD]
    Language                    : Spanish
    Default                     : No
    Forced                      : No

    Text #2
    ID                          : 5
    Format                      : PGS
    Muxing mode                 : zlib
    Codec ID                    : S_HDMV/PGS
    Codec ID/Info               : Picture based subtitle format used on BDs/HD-DVDs
    Duration                    : 2 h 11 min
    Bit rate                    : 17.8 kb/s
    Count of elements           : 1944
    Stream size                 : 16.7 MiB (0%)
    Title                       : Español-PGS [CinemaniaHDD]
    Language                    : Spanish
    Default                     : No
    Forced                      : No

    Text #3
    ID                          : 6
    Format                      : PGS
    Muxing mode                 : zlib
    Codec ID                    : S_HDMV/PGS
    Codec ID/Info               : Picture based subtitle format used on BDs/HD-DVDs
    Duration                    : 2 h 13 min
    Bit rate                    : 22.6 kb/s
    Count of elements           : 2474
    Stream size                 : 21.6 MiB (0%)
    Title                       : Ingles [CinemaniaHDD]
    Language                    : English
    Default                     : No
    Forced                      : No

    Text #4
    ID                          : 7
    Format                      : UTF-8
    Codec ID                    : S_TEXT/UTF8
    Codec ID/Info               : UTF-8 Plain Text
    Duration                    : 1 h 25 min
    Bit rate                    : 0 b/s
    Count of elements           : 3
    Stream size                 : 62.0 Bytes (0%)
    Title                       : Forzados-SRT [CinemaniaHDD]
    Language                    : Spanish
    Default                     : Yes
    Forced                      : Yes

    Text #5
    ID                          : 8
    Format                      : UTF-8
    Codec ID                    : S_TEXT/UTF8
    Codec ID/Info               : UTF-8 Plain Text
    Duration                    : 2 h 7 min
    Bit rate                    : 29 b/s
    Count of elements           : 974
    Stream size                 : 27.5 KiB (0%)
    Title                       : Español-SRT [CinemaniaHDD]
    Language                    : Spanish
    Default                     : No
    Forced                      : No

    Menu
    00:00:00.000                : :Chapter 01
    00:07:43.296                : :Chapter 02
    00:17:40.726                : :Chapter 03
    00:25:22.813                : :Chapter 04
    00:31:17.918                : :Chapter 05
    00:41:30.530                : :Chapter 06
    00:49:32.177                : :Chapter 07
    00:57:07.007                : :Chapter 08
    01:02:31.206                : :Chapter 09
    01:06:06.629                : :Chapter 10
    01:12:43.567                : :Chapter 11
    01:17:19.635                : :Chapter 12
    01:23:04.396                : :Chapter 13
    01:28:47.113                : :Chapter 14
    01:40:42.870                : :Chapter 15
    01:45:32.701                : :Chapter 16
    01:49:28.478                : :Chapter 17
    01:55:37.722                : :Chapter 18
    02:02:14.660                : :Chapter 19
    02:11:00.227                : :Chapter 20
    02:15:13.146                : :Chapter 21

  • Peso: 6.92 GiB

Sinopsis

Descargar Cowboys & Aliens (2011) EXTENDED Full HD 1080p Latino. Arizona, 1873. Un extraño, que no recuerda su pasado, acaba por casualidad en el duro y desértico pueblo de Absolution. Pronto descubre que los forasteros no son bienvenidos y que nadie mueve un dedo en sus calles sin que se lo ordene el Coronel «Mano de hierro» Dolarhyde Ford. Pero Absolution está a punto de experimentar un pánico incompresible cuando la desolada ciudad es atacada por unos maleantes desde el cielo. Ahora, el extraño que rechazaban es su única esperanza de salvación. Este pistolero, se da cuenta de que tiene un secreto que puede darle al pueblo una oportunidad para enfrentarse a los alienígenas. Con la ayuda de la escurridiza viajera Ella, logran reunir a un grupo de antiguos rivales: los ciudadanos, Dolarhyde y sus chicos, los bandidos y los guerreros apache, todos ellos en peligro de ser aniquilados. Unidos contra un enemigo común, se prepararán para un épico enfrentamiento por la supervivencia.

Ficha técnica

Video trailer de la película

Enlaces de descarga

Rip de Bluray

Descargar Cowboys & Aliens (2011) EXTENDED Full HD 1080p Latino-CMHDD




Aportes de DPeliculasHDmega la pass es:dpeliculashdmega.org Aportes de CinemaniaHD la pass es:cinemaniahdd.com Aportes recientes:cinemaniahdd.net

Películas relacionadas

  • Tiburón (1975) REMUX 1080p Latino-CMHDD

    Tiburón (1975) REMUX 1080p Latino-CMHDD

    1975
    Tiburón (1975) REMUX 1080p Latino-CMHDD

    2h 4m 1975

    Descargar Tiburón (1975) REMUX 1080p Latino-CMHDD. En la costa de un pequeño pueblo del Este de Estados...

    Director: Tom Joyner

    Género: Aventura

    Actores: Ted Grossman

  • Oblivion (2013) REMUX 4K HDR Latino – CMHDD

    Oblivion (2013) REMUX 4K HDR Latino – CMHDD

    2013
    Oblivion (2013) REMUX 4K HDR Latino – CMHDD

    2 h 4 min 2013

    Jack Harper es uno de los últimos técnicos de reparación de drones que permanece en la Tierra. Parte...

    Director: Joseph Kosinski

    Género: 4K HDR

    Actores: Zoë Bell

  • El bebé de Rosemary (1968) 1080p Latino-CMHDD

    El bebé de Rosemary (1968) 1080p Latino-CMHDD

    1968
    El bebé de Rosemary (1968) 1080p Latino-CMHDD

    2h 18m 1968

    Descargar El bebé de Rosemary (1968) 1080p Latino-CMHDD. Una joven pareja, Rosemary y Guy, se muda a...

    Director: Roman Polanski

    Género: Drama

    Actores: William Castle

descargar Cowboys & Aliens (2011) EXTENDED Full HD 1080p Latino-CMHDD Full 1080p 1080p gratis, Cowboys & Aliens (2011) EXTENDED Full HD 1080p Latino-CMHDD Full 1080p mega 1 link, Cowboys & Aliens (2011) EXTENDED Full HD 1080p Latino-CMHDD Full 1080p pelicula completa, descargar Cowboys & Aliens (2011) EXTENDED Full HD 1080p Latino-CMHDD Full 1080p gratis en mega.

Cowboys & Aliens (2011) EXTENDED Full HD 1080p Latino-CMHDD pelicula full hd, Cowboys & Aliens (2011) EXTENDED Full HD 1080p Latino-CMHDD mega latino, Cowboys & Aliens (2011) EXTENDED Full HD 1080p Latino-CMHDD 4k latino, Cowboys & Aliens (2011) EXTENDED Full HD 1080p Latino-CMHDD pelicula completa, Cowboys & Aliens (2011) EXTENDED Full HD 1080p Latino-CMHDD descargar gratis, descargar Cowboys & Aliens (2011) EXTENDED Full HD 1080p Latino-CMHDD pelicula latino, Cowboys & Aliens (2011) EXTENDED Full HD 1080p Latino-CMHDD 1 link mega, Cowboys & Aliens (2011) EXTENDED Full HD 1080p Latino-CMHDD 1 link google drive, Cowboys & Aliens (2011) EXTENDED Full HD 1080p Latino-CMHDD hd 1080p latino.
Comentarios 0