×

¿Problemas para descargar con Mozilla, EDGE? Deshabilita la opción "Abrir vinculos en una pestaña nueva" tal como lo muestra ésta imagen.

La hora de tu muerte (2019) Full HD 1080p Latino

1.941 vistas

Información de La hora de tu muerte (2019) Full HD 1080p Latino

Datos de la película

  • Calidad: Full 1080p
  • Audio: Español Latino AC3 2.0 iTUNES - Ingles DTS 5.1 BURAY
  • Subtitulos: Español Latino PGS - Ingles PGS
  • Resolución: 1920x1080p
  • Formato: MKV
  • Codec: H.264
  • Encoder: CinefiloCool
  • Mediainfo: Clic para Mostrar Datos Ver
  • La Hora de Tu Muerte (2019) Full HD 1080p Latino-CMHDD.mkv
    Format                      : Matroska
    Format version              : Version 4
    File size                   : 3.35 GiB
    Duration                    : 1 h 30 min
    Overall bit rate            : 5 290 kb/s
    Movie name                  : CinemaniaHDD.Net
    Encoded date                : UTC 2020-02-07 05:04:04
    Writing application         : mkvmerge v42.0.0 ('Overtime') 64-bit
    Writing library             : libebml v1.3.10 + libmatroska v1.5.2
    Attachments                 : CINEMANIAHD.png

    Video
    ID                          : 1
    Format                      : AVC
    Format/Info                 : Advanced Video Codec
    Format profile              : High@L4.1
    Format settings             : CABAC / 4 Ref Frames
    Format settings, CABAC      : Yes
    Format settings, ReFrames   : 4 frames
    Codec ID                    : V_MPEG4/ISO/AVC
    Duration                    : 1 h 30 min
    Bit rate                    : 3 487 kb/s
    Width                       : 1 920 pixels
    Height                      : 1 080 pixels
    Display aspect ratio        : 16:9
    Frame rate mode             : Constant
    Frame rate                  : 23.976 (24000/1001) FPS
    Color space                 : YUV
    Chroma subsampling          : 4:2:0
    Bit depth                   : 8 bits
    Scan type                   : Progressive
    Bits/(Pixel*Frame)          : 0.070
    Stream size                 : 2.21 GiB (66%)
    Title                       : Full HD1080p [Bluray]
    Writing library             : x264 core 157 r2935 545de2f
    Encoding settings           : cabac=1 / ref=4 / deblock=1:-2:-2 / analyse=0x3:0x133 / me=tesa / subme=11 / psy=1 / psy_rd=1.00:0.25 / mixed_ref=1 / me_range=24 / chroma_me=1 / trellis=2 / 8x8dct=1 / cqm=0 / deadzone=6,6 / fast_pskip=0 / chroma_qp_offset=-4 / threads=34 / lookahead_threads=8 / sliced_threads=0 / nr=0 / decimate=0 / interlaced=0 / bluray_compat=0 / constrained_intra=0 / bframes=16 / b_pyramid=2 / b_adapt=2 / b_bias=0 / direct=3 / weightb=1 / open_gop=0 / weightp=2 / keyint=240 / keyint_min=24 / scenecut=40 / intra_refresh=0 / rc_lookahead=60 / rc=crf / mbtree=1 / crf=19.0 / qcomp=0.80 / qpmin=0 / qpmax=69 / qpstep=4 / vbv_maxrate=62500 / vbv_bufsize=78125 / crf_max=0.0 / nal_hrd=none / filler=0 / ip_ratio=1.10 / aq=1:0.50
    Default                     : Yes
    Forced                      : No
    Color range                 : Limited
    Color primaries             : BT.709
    Transfer characteristics    : BT.709
    Matrix coefficients         : BT.709

    Audio #1
    ID                          : 2
    Format                      : AC-3
    Format/Info                 : Audio Coding 3
    Commercial name             : Dolby Digital
    Codec ID                    : A_AC3
    Duration                    : 1 h 30 min
    Bit rate mode               : Constant
    Bit rate                    : 256 kb/s
    Channel(s)                  : 2 channels
    Channel layout              : L R
    Sampling rate               : 48.0 kHz
    Frame rate                  : 31.250 FPS (1536 SPF)
    Bit depth                   : 16 bits
    Compression mode            : Lossy
    Stream size                 : 166 MiB (5%)
    Title                       : AC3_2.0_Web_Esp
    Language                    : Spanish
    Service kind                : Complete Main
    Default                     : Yes
    Forced                      : Yes

    Audio #2
    ID                          : 3
    Format                      : DTS
    Format/Info                 : Digital Theater Systems
    Codec ID                    : A_DTS
    Duration                    : 1 h 30 min
    Bit rate mode               : Constant
    Bit rate                    : 1 509 kb/s
    Channel(s)                  : 6 channels
    Channel layout              : C L R Ls Rs LFE
    Sampling rate               : 48.0 kHz
    Frame rate                  : 93.750 FPS (512 SPF)
    Bit depth                   : 24 bits
    Compression mode            : Lossy
    Stream size                 : 979 MiB (29%)
    Title                       : DTS_5.1_Bluray_Eng
    Language                    : English
    Default                     : No
    Forced                      : No

    Text #1
    ID                          : 4
    Format                      : PGS
    Muxing mode                 : zlib
    Codec ID                    : S_HDMV/PGS
    Codec ID/Info               : Picture based subtitle format used on BDs/HD-DVDs
    Duration                    : 1 h 29 min
    Bit rate                    : 30.7 kb/s
    Count of elements           : 2266
    Stream size                 : 19.7 MiB (1%)
    Title                       : Sub_Esp [PGS]
    Language                    : Spanish
    Default                     : No
    Forced                      : No

    Text #2
    ID                          : 5
    Format                      : PGS
    Muxing mode                 : zlib
    Codec ID                    : S_HDMV/PGS
    Codec ID/Info               : Picture based subtitle format used on BDs/HD-DVDs
    Duration                    : 1 h 24 min
    Bit rate                    : 41.7 kb/s
    Count of elements           : 2569
    Stream size                 : 25.2 MiB (1%)
    Title                       : Sub_Eng [PGS]
    Language                    : English
    Default                     : No
    Forced                      : No

    Text #3
    ID                          : 6
    Format                      : UTF-8
    Codec ID                    : S_TEXT/UTF8
    Codec ID/Info               : UTF-8 Plain Text
    Duration                    : 1 h 21 min
    Bit rate                    : 2 b/s
    Count of elements           : 49
    Stream size                 : 1.29 KiB (0%)
    Title                       : Sub_Forzados
    Language                    : Spanish
    Default                     : Yes
    Forced                      : Yes

    Text #4
    ID                          : 7
    Format                      : UTF-8
    Codec ID                    : S_TEXT/UTF8
    Codec ID/Info               : UTF-8 Plain Text
    Duration                    : 1 h 29 min
    Bit rate                    : 44 b/s
    Count of elements           : 1130
    Stream size                 : 28.9 KiB (0%)
    Title                       : Sub_Esp
    Language                    : Spanish
    Default                     : No
    Forced                      : No

    Menu
    00:00:00.000                : en:Chapter 01
    00:03:14.694                : en:Chapter 02
    00:08:07.028                : en:Chapter 03
    00:14:14.937                : en:Chapter 04
    00:18:02.999                : en:Chapter 05
    00:24:23.462                : en:Chapter 06
    00:31:47.989                : en:Chapter 07
    00:35:37.552                : en:Chapter 08
    00:39:21.943                : en:Chapter 09
    00:44:15.736                : en:Chapter 10
    00:47:26.177                : en:Chapter 11
    00:50:52.925                : en:Chapter 12
    00:55:49.304                : en:Chapter 13
    00:59:32.027                : en:Chapter 14
    01:07:01.059                : en:Chapter 15
    01:09:26.496                : en:Chapter 16
    01:15:02.456                : en:Chapter 17
    01:20:53.891                : en:Chapter 18
    01:22:54.261                : en:Chapter 19
    01:24:05.165                : en:Chapter 20

  • Peso: 3.35 GiB

Sinopsis

Descargar La hora de tu muerte (2019) Full HD 1080p Latino. Quinn, una joven enfermera, descarga una aplicación para el móvil llamada ‘Countdown’, que puede predecir el momento exacto en el que una persona va a morir. En ese momento descubre que a ella sólo le quedan tres días de vida. Con el tiempo jugando en su contra y tras ser perseguida por una persona desconocida, tratará desesperadamente de burlar al destino antes de que se le agote el tiempo.

Ficha técnica

Video trailer de la película

Enlaces de descarga

Rip de Bluray

Descargar La hora de tu muerte (2019) Full HD 1080p Latino




Aportes de DPeliculasHDmega la pass es:dpeliculashdmega.org Aportes de CinemaniaHD la pass es:cinemaniahdd.com

Películas relacionadas

descargar La hora de tu muerte (2019) Full HD 1080p Latino Full 1080p 1080p gratis, La hora de tu muerte (2019) Full HD 1080p Latino Full 1080p mega 1 link, La hora de tu muerte (2019) Full HD 1080p Latino Full 1080p pelicula completa, descargar La hora de tu muerte (2019) Full HD 1080p Latino Full 1080p gratis en mega.

La hora de tu muerte (2019) Full HD 1080p Latino pelicula full hd, La hora de tu muerte (2019) Full HD 1080p Latino mega latino, La hora de tu muerte (2019) Full HD 1080p Latino 4k latino, La hora de tu muerte (2019) Full HD 1080p Latino pelicula completa, La hora de tu muerte (2019) Full HD 1080p Latino descargar gratis, descargar La hora de tu muerte (2019) Full HD 1080p Latino pelicula latino, La hora de tu muerte (2019) Full HD 1080p Latino 1 link mega, La hora de tu muerte (2019) Full HD 1080p Latino 1 link google drive, La hora de tu muerte (2019) Full HD 1080p Latino hd 1080p latino.
Comentarios 0