×

¿Problemas para descargar con Mozilla, EDGE? Deshabilita la opción "Abrir vinculos en una pestaña nueva" tal como lo muestra ésta imagen.

Cosmos Possible Worlds (2020) WEB-DL 1080p Latino – CMHDD

138 vistas

Información de Cosmos Possible Worlds (2020) WEB-DL 1080p Latino – CMHDD

Datos de la película

  • Calidad: WEBDL
  • Audio: Se especifica abajo de la Sinopsis
  • Subtitulos: Español Latino SRT
  • Resolución: 19201080p
  • Formato: MKV
  • Codec: H.264
  • Encoder: Dracarys
  • Mediainfo: Clic para Mostrar Datos Ver
  • Format                      : Matroska
    Format version              : Version 4
    File size                   : 2.63 GiB
    Duration                    : 43 min 56 s
    Overall bit rate            : 8 565 kb/s
    Movie name                  : Cosmos Possible Worlds (2020) [S01E01] WEB-DL 1080p Latino - CMHDD
    Encoded date                : UTC 2023-11-27 00:22:22
    Writing application         : mkvmerge v47.0.0 ('Black Flag') 64-bit
    Writing library             : libebml v1.3.10 + libmatroska v1.5.2

    Video
    ID                          : 1
    Format                      : AVC
    Format/Info                 : Advanced Video Codec
    Format profile              : High@L4
    Format settings             : CABAC / 4 Ref Frames
    Format settings, CABAC      : Yes
    Format settings, Reference  : 4 frames
    Codec ID                    : V_MPEG4/ISO/AVC
    Duration                    : 43 min 56 s
    Bit rate mode               : Constant
    Bit rate                    : 7 797 kb/s
    Nominal bit rate            : 10 000 kb/s
    Width                       : 1 920 pixels
    Height                      : 1 080 pixels
    Display aspect ratio        : 16:9
    Frame rate mode             : Constant
    Frame rate                  : 23.976 (24000/1001) FPS
    Color space                 : YUV
    Chroma subsampling          : 4:2:0
    Bit depth                   : 8 bits
    Scan type                   : Progressive
    Bits/(Pixel*Frame)          : 0.157
    Stream size                 : 2.39 GiB (91%)
    Default                     : Yes
    Forced                      : No
    Color range                 : Limited
    Color primaries             : BT.709
    Transfer characteristics    : BT.709
    Matrix coefficients         : BT.709

    Audio #1
    ID                          : 2
    Format                      : AAC LC
    Format/Info                 : Advanced Audio Codec Low Complexity
    Codec ID                    : A_AAC-2
    Duration                    : 43 min 56 s
    Bit rate                    : 125 kb/s
    Channel(s)                  : 2 channels
    Channel layout              : L R
    Sampling rate               : 48.0 kHz
    Frame rate                  : 46.875 FPS (1024 SPF)
    Compression mode            : Lossy
    Stream size                 : 39.4 MiB (1%)
    Language                    : Spanish
    Default                     : Yes
    Forced                      : No

    Audio #2
    ID                          : 3
    Format                      : E-AC-3
    Format/Info                 : Enhanced AC-3
    Commercial name             : Dolby Digital Plus
    Codec ID                    : A_EAC3
    Duration                    : 43 min 56 s
    Bit rate mode               : Constant
    Bit rate                    : 640 kb/s
    Channel(s)                  : 6 channels
    Channel layout              : L R C LFE Ls Rs
    Sampling rate               : 48.0 kHz
    Frame rate                  : 31.250 FPS (1536 SPF)
    Compression mode            : Lossy
    Stream size                 : 201 MiB (7%)
    Language                    : English
    Service kind                : Complete Main
    Default                     : No
    Forced                      : No

    Text #1
    ID                          : 4
    Format                      : UTF-8
    Codec ID                    : S_TEXT/UTF8
    Codec ID/Info               : UTF-8 Plain Text
    Duration                    : 39 min 24 s
    Bit rate                    : 0 b/s
    Frame rate                  : 0.001 FPS
    Count of elements           : 2
    Stream size                 : 71.0 Bytes (0%)
    Language                    : Spanish
    Default                     : Yes
    Forced                      : Yes

    Text #2
    ID                          : 5
    Format                      : UTF-8
    Codec ID                    : S_TEXT/UTF8
    Codec ID/Info               : UTF-8 Plain Text
    Duration                    : 43 min 32 s
    Bit rate                    : 93 b/s
    Frame rate                  : 0.292 FPS
    Count of elements           : 762
    Stream size                 : 29.8 KiB (0%)
    Language                    : Spanish
    Default                     : No
    Forced                      : No

     

  • Peso: 34.4 GiB

Sinopsis

Cosmos: Mundos posibles y también Cosmos: Otros mundos del original Cosmos: Possible Worlds es una serie documental científica de televisión, que se estrenó el 9 de marzo de 2020 en el canal National Geographic. La serie es una adaptación del libro homónimo de Ann Druyan.1​ La serie se plantea como una continuación de la anterior de 2014, Cosmos: Una odisea de tiempo y espacio presentada por Neil deGrasse Tyson, que fue precedida por la serie original Cosmos: Un viaje personal, presentada por Carl Sagan en televisión pública (PBS) en 1980.

La serie es presentada por el astrofísico Neil deGrasse Tyson; escrita, dirigida y producida por Ann Druyan y Brannon Braga; con otros productores ejecutivos Seth MacFarlane y Jason Clark. La serie consta de 13 episodios que se transmiten desde marzo de 2020

 

Latino: AAC 2.0  –  Inglés: E-AC3 5,1

Ficha técnica

  • Titulo original: Cosmos: Possible Worlds
  • Fecha de lanzamiento: 09-03-2020 (US)
  • Género: Documental

Video trailer de la película

Enlaces de descarga

Rip de Bluray

Descargar Cosmos Possible Worlds (2020) WEB-DL 1080p Latino – CMHDD




Aportes de DPeliculasHDmega la pass es:dpeliculashdmega.org Aportes de CinemaniaHD la pass es:cinemaniahdd.com Aportes recientes:cinemaniahdd.net
Guardado en : Documental

Películas relacionadas

descargar Cosmos Possible Worlds (2020) WEB-DL 1080p Latino – CMHDD WEBDL 1080p gratis, Cosmos Possible Worlds (2020) WEB-DL 1080p Latino – CMHDD WEBDL mega 1 link, Cosmos Possible Worlds (2020) WEB-DL 1080p Latino – CMHDD WEBDL pelicula completa, descargar Cosmos Possible Worlds (2020) WEB-DL 1080p Latino – CMHDD WEBDL gratis en mega.

Cosmos Possible Worlds (2020) WEB-DL 1080p Latino – CMHDD pelicula full hd, Cosmos Possible Worlds (2020) WEB-DL 1080p Latino – CMHDD mega latino, Cosmos Possible Worlds (2020) WEB-DL 1080p Latino – CMHDD 4k latino, Cosmos Possible Worlds (2020) WEB-DL 1080p Latino – CMHDD pelicula completa, Cosmos Possible Worlds (2020) WEB-DL 1080p Latino – CMHDD descargar gratis, descargar Cosmos Possible Worlds (2020) WEB-DL 1080p Latino – CMHDD pelicula latino, Cosmos Possible Worlds (2020) WEB-DL 1080p Latino – CMHDD 1 link mega, Cosmos Possible Worlds (2020) WEB-DL 1080p Latino – CMHDD 1 link google drive, Cosmos Possible Worlds (2020) WEB-DL 1080p Latino – CMHDD hd 1080p latino.
Comentarios 0