Cosmos: Mundos Posibles (2020) Temporada 1 WEB-DL 1080p Latino

272 vistas
1 estrella2 estrellas3 estrellas4 estrellas5 estrellas (5 votos, promedio: 5,00 de 5)
Cargando...

Información de Cosmos: Mundos Posibles (2020) Temporada 1 WEB-DL 1080p Latino

Datos de la película

  • Calidad: WEBDL
  • Audio: Español Latino AC3 2.0 - Ingles AC3 2.0
  • Subtitulos: Español Latino SRT
  • Resolución: 1920x1080
  • Formato: MKV
  • Codec: H.264
  • Encoder: cinemaniahdd
  • Mediainfo: Clic para Mostrar Datos Ver
  • Cosmos, Mundos Posibles T01E01 WEB-DL 1080p Latino [CNMNHDD].mkv
    Format                      : Matroska
    Format version              : Version 4
    File size                   : 1.59 GiB
    Duration                    : 43 min 45 s
    Overall bit rate            : 5 207 kb/s
    Movie name                  : Cosmos, Mundos Posibles T01E01 - CinemaniaHDD.Net
    Encoded date                : UTC 2020-05-29 03:32:26
    Writing application         : mkvmerge v46.0.0 ('No Deeper Escape') 64-bit
    Writing library             : libebml v1.3.10 + libmatroska v1.5.2

    Video
    ID                          : 1
    Format                      : AVC
    Format/Info                 : Advanced Video Codec
    Format profile              : High@L4
    Format settings             : CABAC / 2 Ref Frames
    Format settings, CABAC      : Yes
    Format settings, Reference  : 2 frames
    Codec ID                    : V_MPEG4/ISO/AVC
    Duration                    : 43 min 45 s
    Bit rate                    : 5 000 kb/s
    Width                       : 1 920 pixels
    Height                      : 1 080 pixels
    Display aspect ratio        : 16:9
    Frame rate mode             : Constant
    Frame rate                  : 29.970 (29970/1000) FPS
    Color space                 : YUV
    Chroma subsampling          : 4:2:0
    Bit depth                   : 8 bits
    Scan type                   : Progressive
    Bits/(Pixel*Frame)          : 0.080
    Stream size                 : 1.51 GiB (95%)
    Title                       : CinemaniaHDD
    Writing library             : x264 core 148 r2579M 73ae2d1
    Encoding settings           : cabac=1 / ref=2 / deblock=1:0:0 / analyse=0x3:0x113 / me=hex / subme=2 / psy=1 / psy_rd=1.00:0.00 / mixed_ref=0 / me_range=16 / chroma_me=1 / trellis=0 / 8x8dct=1 / cqm=0 / deadzone=21,11 / fast_pskip=1 / chroma_qp_offset=0 / threads=4 / lookahead_threads=1 / sliced_threads=0 / nr=250 / decimate=1 / interlaced=0 / bluray_compat=0 / stitchable=1 / constrained_intra=0 / bframes=0 / weightp=1 / keyint=250 / keyint_min=25 / scenecut=40 / intra_refresh=0 / rc_lookahead=10 / rc=2pass / mbtree=1 / bitrate=5000 / ratetol=1.0 / qcomp=0.60 / qpmin=5 / qpmax=69 / qpstep=4 / cplxblur=20.0 / qblur=0.5 / vbv_maxrate=10000 / vbv_bufsize=5000 / nal_hrd=none / filler=0 / ip_ratio=1.40 / aq=1:1.00
    Language                    : Spanish
    Default                     : Yes
    Forced                      : No
    Color range                 : Limited
    Color primaries             : BT.709
    Transfer characteristics    : BT.709
    Matrix coefficients         : BT.709

    Audio #1
    ID                          : 2
    Format                      : AAC LC SBR
    Format/Info                 : Advanced Audio Codec Low Complexity with Spectral Band Replication
    Commercial name             : HE-AAC
    Format settings             : Explicit
    Codec ID                    : A_AAC-2
    Duration                    : 43 min 45 s
    Bit rate                    : 127 kb/s
    Channel(s)                  : 2 channels
    Channel layout              : L R
    Sampling rate               : 48.0 kHz
    Frame rate                  : 23.438 FPS (2048 SPF)
    Compression mode            : Lossy
    Stream size                 : 39.7 MiB (2%)
    Title                       : Español latino [CinemaniaHDD]
    Language                    : Spanish
    Default                     : Yes
    Forced                      : Yes

    Audio #2
    ID                          : 3
    Format                      : AAC LC SBR
    Format/Info                 : Advanced Audio Codec Low Complexity with Spectral Band Replication
    Commercial name             : HE-AAC
    Format settings             : Explicit
    Codec ID                    : A_AAC-2
    Duration                    : 43 min 45 s
    Bit rate                    : 127 kb/s
    Channel(s)                  : 2 channels
    Channel layout              : L R
    Sampling rate               : 48.0 kHz
    Frame rate                  : 23.438 FPS (2048 SPF)
    Compression mode            : Lossy
    Stream size                 : 39.7 MiB (2%)
    Title                       : Inglés [CinemaniaHDD]
    Language                    : English
    Default                     : No
    Forced                      : No

    Text
    ID                          : 4
    Format                      : UTF-8
    Codec ID                    : S_TEXT/UTF8
    Codec ID/Info               : UTF-8 Plain Text
    Duration                    : 42 min 23 s
    Bit rate                    : 91 b/s
    Count of elements           : 753
    Stream size                 : 28.3 KiB (0%)
    Title                       : Español latino [CinemaniaHDD]
    Language                    : Spanish
    Default                     : No
    Forced                      : No

     

  • Peso: 1.59 GiB C/U --- FINAL DE TEMPORADA

Sinopsis

En la inmensidad del tiempo y del espacio, la cantidad de mundos para explorar y las historias para contar son infinitas. Este COSMOS más audaz es un emocionante viaje de exploración, lleno de esperanza, a mundos perdidos y otros por venir. Conocerás a los buscadores cuyo coraje rivaliza con cualquier héroe mitológico. Y te llevará profundamente al futuro y a través de ese agujero en la cortina de la realidad.

13 CAPITULOS AGREGADOS

FINAL DE TEMPORADA

Ficha técnica

Video trailer de la película

Enlaces de descarga

Rip de Bluray

Descargar Cosmos: Mundos Posibles (2020) Temporada 1 WEB-DL 1080p Latino




Aportes de DPeliculasHDmega la pass es:dpeliculashdmega.org Aportes de CinemaniaHD la pass es:cinemaniahdd.com
Guardado en : Documental , Series

Películas relacionadas

Comentarios 12
  • The Principal - 16 julio, 2020

    hola ..pregunta es 2014 o 2020…..no entiendo eso????…puedes esplicarmelo…gracias

  • AMigo - 30 mayo, 2020

    Gracias, suban mas de tipo documental. como GENIUS la vida de albert einstein. gracias de nuevo

    • CinemaniaHDD - 04 junio, 2020

      Hola, no la encontre en mis fuentes

  • Ricardo Paiz - 30 mayo, 2020

    Hola muchas gracias por el aporte pero solo son 10 captitulos y son 13 y falta 3 capitulos

    • CinemaniaHDD - 30 mayo, 2020

      Hola, esos capitulos no hay sido transmitidos en Latino-America aun, hay que esperar que NatGeo los Libere

      • Ricardo Paiz - 31 mayo, 2020

        ha Bueno pero falta el capitulo No. 9 Muchas gracias por el aporte

        • CinemaniaHDD - 04 junio, 2020

          Recien hoy se estrena.

          • Ricardo Paiz - 07 junio, 2020

            los capítulos que faltan se estarán subiendo semanal entonces?

            • CinemaniaHDD - 11 junio, 2020

              NO, no tengo idea de cuando liberen
              apenas los vea los desencripto y los posteo

  • William - 29 mayo, 2020

    Gracias como siempre por tan excelentes aportes, pero debo decir que esta vez la calidad no es buena, los 10 capítulos no parecen 1080p, además falta el capitulo 9,

    • CinemaniaHDD - 30 mayo, 2020

      Es lo maximo que da y hay en FoxPlay