×

¿Problemas para descargar con Mozilla, EDGE? Deshabilita la opción "Abrir vinculos en una pestaña nueva" tal como lo muestra ésta imagen.

Cosmoball Guardianes Del Universo (2020) REMUX 1080i Latino

163 vistas

Información de Cosmoball Guardianes Del Universo (2020) REMUX 1080i Latino

Datos de la película

  • Calidad: Full 1080p
  • Audio: Se especifica abajo de la Sinopsis
  • Subtitulos: Español Latino SRT- FORZADOS SRT
  • Resolución: 1920x1080i
  • Formato: MKV
  • Codec: H.264
  • Encoder: Melkor
  • Mediainfo: Clic para Mostrar Datos Ver
  • Cosmoball (2020) REMUX CEE 1080i Latino.mkv
    Format                      : Matroska
    Format version              : Version 4
    File size                   : 18.2 GiB
    Duration                    : 1 h 53 min
    Overall bit rate mode       : Variable
    Overall bit rate            : 22.9 Mb/s
    Movie name                  : Cosmoball (2020) 1080i CinemaniaHDD.Net
    Encoded date                : UTC 2021-05-26 21:16:40
    Writing application         : mkvmerge v56.1.0 ('My Friend') 64-bit
    Writing library             : libebml v1.4.2 + libmatroska v1.6.4
    Attachments                 : CINEMANIAHD.png

    Video
    ID                          : 1
    Format                      : AVC
    Format/Info                 : Advanced Video Codec
    Format profile              : High@L4.1
    Format settings             : CABAC / 4 Ref Frames
    Format settings, CABAC      : Yes
    Format settings, Reference  : 4 frames
    Codec ID                    : V_MPEG4/ISO/AVC
    Duration                    : 1 h 53 min
    Bit rate mode               : Variable
    Bit rate                    : 19.9 Mb/s
    Maximum bit rate            : 30.0 Mb/s
    Width                       : 1 920 pixels
    Height                      : 1 080 pixels
    Display aspect ratio        : 16:9
    Frame rate mode             : Variable
    Frame rate                  : 50.000 FPS
    Original frame rate         : 25.000 FPS
    Color space                 : YUV
    Chroma subsampling          : 4:2:0
    Bit depth                   : 8 bits
    Scan type                   : Interlaced
    Scan type, store method     : Separated fields
    Scan order                  : Top Field First

    Bits/(Pixel*Frame)          : 0.192
    Stream size                 : 15.8 GiB (87%)
    Title                       : REMUX HD1080p [CinemaniaHDD]
    Default                     : Yes
    Forced                      : Yes
    Color range                 : Limited
    Color primaries             : BT.709
    Transfer characteristics    : BT.709
    Matrix coefficients         : BT.709

    Audio #1
    ID                          : 2
    Format                      : AC-3
    Format/Info                 : Audio Coding 3
    Commercial name             : Dolby Digital
    Codec ID                    : A_AC3
    Duration                    : 1 h 53 min
    Bit rate mode               : Constant
    Bit rate                    : 448 kb/s
    Channel(s)                  : 6 channels
    Channel layout              : L R C LFE Ls Rs
    Sampling rate               : 48.0 kHz
    Frame rate                  : 31.250 FPS (1536 SPF)
    Compression mode            : Lossy
    Stream size                 : 364 MiB (2%)
    Title                       : Español Latino [CinemaniaHDD]
    Language                    : Spanish
    Service kind                : Complete Main
    Default                     : Yes
    Forced                      : Yes

    Audio #2
    ID                          : 3
    Format                      : DTS XLL
    Format/Info                 : Digital Theater Systems
    Commercial name             : DTS-HD Master Audio
    Codec ID                    : A_DTS
    Duration                    : 1 h 53 min
    Bit rate mode               : Variable
    Bit rate                    : 2 472 kb/s
    Channel(s)                  : 6 channels
    Channel layout              : C L R Ls Rs LFE
    Sampling rate               : 48.0 kHz
    Frame rate                  : 93.750 FPS (512 SPF)
    Bit depth                   : 16 bits
    Compression mode            : Lossless
    Stream size                 : 1.96 GiB (11%)
    Title                       : Ruso [CinemaniaHDD]
    Language                    : Russian
    Default                     : No
    Forced                      : No

    Text #1
    ID                          : 4
    Format                      : UTF-8
    Codec ID                    : S_TEXT/UTF8
    Codec ID/Info               : UTF-8 Plain Text
    Duration                    : 1 s 959 ms
    Bit rate                    : 61 b/s
    Count of elements           : 1
    Stream size                 : 15.0 Bytes (0%)
    Title                       : Forzados-SRT [CinemaniaHDD]
    Language                    : Spanish
    Default                     : Yes
    Forced                      : Yes

    Text #2
    ID                          : 5
    Format                      : UTF-8
    Codec ID                    : S_TEXT/UTF8
    Codec ID/Info               : UTF-8 Plain Text
    Duration                    : 1 h 49 min
    Bit rate                    : 55 b/s
    Count of elements           : 1232
    Stream size                 : 44.7 KiB (0%)
    Title                       : Español-SRT [CinemaniaHDD]
    Language                    : Spanish
    Default                     : No
    Forced                      : No

    Text #3
    ID                          : 6
    Format                      : UTF-8
    Codec ID                    : S_TEXT/UTF8
    Codec ID/Info               : UTF-8 Plain Text
    Duration                    : 1 h 49 min
    Bit rate                    : 42 b/s
    Count of elements           : 1270
    Stream size                 : 33.6 KiB (0%)
    Title                       : Ingles-SRT [CinemaniaHDD]
    Language                    : English
    Default                     : No
    Forced                      : No

    Menu
    00:00:00.000                : Chapter 01
    00:18:43.480                : Chapter 02
    00:30:49.960                : Chapter 03
    00:44:49.440                : Chapter 04
    00:56:38.240                : Chapter 05
    01:21:56.760                : Chapter 06
    01:34:25.840                : Chapter 07
    01:50:09.800                : Chapter 08

  • Peso: 18.2 GiB

Sinopsis

Descargar Cosmoball Guardianes Del Universo (2020) REMUX 1080i Latino. Cosmoball es un fascinante juego intergaláctico del futuro que se juega entre humanos y extraterrestres en la gigantesca nave extraterrestre que flota en el cielo sobre la Tierra. Un joven con un enorme poder de naturaleza desconocida se une al equipo de superhéroes impetuosos a cambio de una cura para la enfermedad mortal de su madre. Los Cuatro de la Tierra lucharán no solo para defender el honor de su planeta natal en el espectacular juego, sino para enfrentar la amenaza sin precedentes para la Galaxia y abrazar su propio destino.

Español Latino AC3 5.1 WebDL – Ruso DTS-HD 5.1 Bluray

Source: Bluray CEE Original BD25 con barrido entrelazado Distribuido por F.I.P. 😉
Nota: Disponible Solo Para VIP 🙂

Ficha técnica

Video trailer de la película

Enlaces de descarga

Rip de Bluray

Descargar Cosmoball Guardianes Del Universo (2020) REMUX 1080i Latino


Aportes de DPeliculasHDmega la pass es:dpeliculashdmega.org Aportes de CinemaniaHD la pass es:cinemaniahdd.com
Guardado en : Aventura , Ciencia ficción , Remux

Películas relacionadas

descargar Cosmoball Guardianes Del Universo (2020) REMUX 1080i Latino Full 1080p 1080p gratis, Cosmoball Guardianes Del Universo (2020) REMUX 1080i Latino Full 1080p mega 1 link, Cosmoball Guardianes Del Universo (2020) REMUX 1080i Latino Full 1080p pelicula completa, descargar Cosmoball Guardianes Del Universo (2020) REMUX 1080i Latino Full 1080p gratis en mega.

Cosmoball Guardianes Del Universo (2020) REMUX 1080i Latino pelicula full hd, Cosmoball Guardianes Del Universo (2020) REMUX 1080i Latino mega latino, Cosmoball Guardianes Del Universo (2020) REMUX 1080i Latino 4k latino, Cosmoball Guardianes Del Universo (2020) REMUX 1080i Latino pelicula completa, Cosmoball Guardianes Del Universo (2020) REMUX 1080i Latino descargar gratis, descargar Cosmoball Guardianes Del Universo (2020) REMUX 1080i Latino pelicula latino, Cosmoball Guardianes Del Universo (2020) REMUX 1080i Latino 1 link mega, Cosmoball Guardianes Del Universo (2020) REMUX 1080i Latino 1 link google drive, Cosmoball Guardianes Del Universo (2020) REMUX 1080i Latino hd 1080p latino.
Comentarios 0