×

¿Problemas para descargar con Mozilla, EDGE? Deshabilita la opción "Abrir vinculos en una pestaña nueva" tal como lo muestra ésta imagen.

Cosmic Sin (2021) REMUX 1080p Latino

317 vistas

Información de Cosmic Sin (2021) REMUX 1080p Latino

Datos de la película

  • Calidad: Full 1080p
  • Audio: Español Latino AC3 2.0 WEB-DL - Ingles AC3 5.1 BLURAY
  • Subtitulos: Español Latino SRT- FORZADOS SRT
  • Resolución: 1920x1080
  • Formato: MKV
  • Codec: H.264
  • Encoder: cinemaniahdd
  • Mediainfo: Clic para Mostrar Datos Ver
  • Cosmic Sin (2021) REMUX 1080p Latino [CNMNHDD].mkv
    Format                      : Matroska
    Format version              : Version 4
    File size                   : 25.0 GiB
    Duration                    : 1 h 28 min
    Overall bit rate mode       : Variable
    Overall bit rate            : 40.5 Mb/s
    Movie name                  : Cosmic Sin (2021) REMUX - CinemaniaHDD.Net
    Encoded date                : UTC 2021-09-17 03:28:49
    Writing application         : mkvmerge v56.1.0 ('My Friend') 64-bit
    Writing library             : libebml v1.4.2 + libmatroska v1.6.4

    Video
    ID                          : 1
    ID in the original source m : 4113 (0x1011)
    Format                      : AVC
    Format/Info                 : Advanced Video Codec
    Format profile              : High@L4.1
    Format settings             : CABAC / 2 Ref Frames
    Format settings, CABAC      : Yes
    Format settings, Reference  : 2 frames
    Codec ID                    : V_MPEG4/ISO/AVC
    Duration                    : 1 h 28 min
    Bit rate mode               : Variable
    Bit rate                    : 35.6 Mb/s
    Width                       : 1 920 pixels
    Height                      : 1 080 pixels
    Display aspect ratio        : 16:9
    Frame rate mode             : Constant
    Frame rate                  : 23.976 (24000/1001) FPS
    Color space                 : YUV
    Chroma subsampling          : 4:2:0
    Bit depth                   : 8 bits
    Scan type                   : Progressive
    Bits/(Pixel*Frame)          : 0.716
    Stream size                 : 22.0 GiB (88%)
    Title                       : CinemaniaHDD
    Language                    : English
    Default                     : No
    Forced                      : No
    Original source medium      : Blu-ray

    Audio #1
    ID                          : 2
    Format                      : AC-3
    Format/Info                 : Audio Coding 3
    Commercial name             : Dolby Digital
    Codec ID                    : A_AC3
    Duration                    : 1 h 28 min
    Bit rate mode               : Constant
    Bit rate                    : 384 kb/s
    Channel(s)                  : 2 channels
    Channel layout              : L R
    Sampling rate               : 48.0 kHz
    Frame rate                  : 31.250 FPS (1536 SPF)
    Compression mode            : Lossy
    Stream size                 : 243 MiB (1%)
    Title                       : Español latino [CinemaniaHDD]
    Language                    : Spanish
    Service kind                : Complete Main
    Default                     : Yes
    Forced                      : No

    Audio #2
    ID                          : 3
    ID in the original source m : 4352 (0x1100)
    Format                      : DTS XLL
    Format/Info                 : Digital Theater Systems
    Commercial name             : DTS-HD Master Audio
    Codec ID                    : A_DTS
    Duration                    : 1 h 28 min
    Bit rate mode               : Variable
    Bit rate                    : 3 851 kb/s
    Channel(s)                  : 6 channels
    Channel layout              : C L R Ls Rs LFE
    Sampling rate               : 48.0 kHz
    Frame rate                  : 93.750 FPS (512 SPF)
    Bit depth                   : 24 bits
    Compression mode            : Lossless
    Stream size                 : 2.38 GiB (10%)
    Title                       : Inglés [CinemaniaHDD]
    Language                    : English
    Default                     : No
    Forced                      : No
    Original source medium      : Blu-ray

    Audio #3
    ID                          : 4
    Format                      : AC-3
    Format/Info                 : Audio Coding 3
    Commercial name             : Dolby Digital
    Codec ID                    : A_AC3
    Duration                    : 1 h 28 min
    Bit rate mode               : Constant
    Bit rate                    : 640 kb/s
    Channel(s)                  : 6 channels
    Channel layout              : L R C LFE Ls Rs
    Sampling rate               : 48.0 kHz
    Frame rate                  : 31.250 FPS (1536 SPF)
    Compression mode            : Lossy
    Stream size                 : 405 MiB (2%)
    Title                       : Inglés / AC3 [CinemaniaHDD]
    Language                    : English
    Service kind                : Complete Main
    Default                     : No
    Forced                      : No

    Text #1
    ID                          : 5
    Format                      : UTF-8
    Codec ID                    : S_TEXT/UTF8
    Codec ID/Info               : UTF-8 Plain Text
    Duration                    : 1 h 27 min
    Bit rate                    : 0 b/s
    Count of elements           : 19
    Stream size                 : 612 Bytes (0%)
    Title                       : Forzados [CinemaniaHDD]
    Language                    : Spanish
    Default                     : Yes
    Forced                      : Yes

    Text #2
    ID                          : 6
    Format                      : UTF-8
    Codec ID                    : S_TEXT/UTF8
    Codec ID/Info               : UTF-8 Plain Text
    Duration                    : 1 h 27 min
    Bit rate                    : 41 b/s
    Count of elements           : 836
    Stream size                 : 26.7 KiB (0%)
    Title                       : Español latino [CinemaniaHDD]
    Language                    : Spanish
    Default                     : No
    Forced                      : No

    Text #3
    ID                          : 7
    Format                      : UTF-8
    Codec ID                    : S_TEXT/UTF8
    Codec ID/Info               : UTF-8 Plain Text
    Duration                    : 1 h 22 min
    Bit rate                    : 42 b/s
    Count of elements           : 782
    Stream size                 : 25.6 KiB (0%)
    Title                       : Inglés [CinemaniaHDD]
    Language                    : English
    Default                     : No
    Forced                      : No

    Menu
    00:00:00.000                : Chapter 01
    00:05:47.430                : Chapter 02
    00:13:53.207                : Chapter 03
    00:18:16.887                : Chapter 04
    00:26:36.845                : Chapter 05
    00:30:37.210                : Chapter 06
    00:37:30.581                : Chapter 07
    00:46:56.563                : Chapter 08
    00:53:47.140                : Chapter 09
    01:01:08.998                : Chapter 10
    01:06:53.551                : Chapter 11
    01:12:41.732                : Chapter 12
    01:16:19.908                : Chapter 13
    01:21:39.352                : Chapter 14
    01:25:29.541                : Chapter 15

     

  • Peso: 25.0 GiB

Sinopsis

Año 2524. El general militar retirado James Ford vuelve a entrar en servicio después de que soldados en un planeta remoto son atacados por una flota alienígena. La amenaza contra la raza humana se convierte en una inevitable guerra interestelar.

Ficha técnica

Video trailer de la película

Enlaces de descarga

Rip de Bluray

Descargar Cosmic Sin (2021) REMUX 1080p Latino


Aportes de DPeliculasHDmega la pass es:dpeliculashdmega.org Aportes de CinemaniaHD la pass es:cinemaniahdd.com Aportes recientes:cinemaniahdd.net
Guardado en : Ciencia ficción , Remux

Películas relacionadas

  • 57 Seconds (2023) AMZN WEB-DL 1080p Latino

    57 Seconds (2023) AMZN WEB-DL 1080p Latino

    2023
    57 Seconds (2023) AMZN WEB-DL 1080p Latino

    1h 39m 2023

    Cuando un blogger de tecnología consigue una entrevista con un gurú de la tecnología y detiene un...

    Director: Taylor DiMarco

    Género: Acción

    Actores: Valerie E. Lamb

  • The Bodyguard (1992) REMUX 1080p Latino-CMHDD

    The Bodyguard (1992) REMUX 1080p Latino-CMHDD

    1992
    The Bodyguard (1992) REMUX 1080p Latino-CMHDD

    2h 9m 1992

    Descargar The Bodyguard (1992) REMUX 1080p Latino-CMHDD. Una cantante famosa que recibe constantes cartas...

    Director: Mick Jackson

    Género: Acción

    Actores: Whitney Houston

  • One Day (2011) REMUX 1080p Latino-CMHDD

    One Day (2011) REMUX 1080p Latino-CMHDD

    2011
    One Day (2011) REMUX 1080p Latino-CMHDD

    1h 43m 2011

    Descargar One Day (2011) REMUX 1080p Latino-CMHDD. Emma y Dexter se conocen el día de su graduación...

    Director: Maj-Britt La Cour

    Género: Drama

    Actores: Ukweli Roach

descargar Cosmic Sin (2021) REMUX 1080p Latino Full 1080p 1080p gratis, Cosmic Sin (2021) REMUX 1080p Latino Full 1080p mega 1 link, Cosmic Sin (2021) REMUX 1080p Latino Full 1080p pelicula completa, descargar Cosmic Sin (2021) REMUX 1080p Latino Full 1080p gratis en mega.

Cosmic Sin (2021) REMUX 1080p Latino pelicula full hd, Cosmic Sin (2021) REMUX 1080p Latino mega latino, Cosmic Sin (2021) REMUX 1080p Latino 4k latino, Cosmic Sin (2021) REMUX 1080p Latino pelicula completa, Cosmic Sin (2021) REMUX 1080p Latino descargar gratis, descargar Cosmic Sin (2021) REMUX 1080p Latino pelicula latino, Cosmic Sin (2021) REMUX 1080p Latino 1 link mega, Cosmic Sin (2021) REMUX 1080p Latino 1 link google drive, Cosmic Sin (2021) REMUX 1080p Latino hd 1080p latino.
Comentarios 0