×

¿Problemas para descargar con Mozilla, EDGE? Deshabilita la opción "Abrir vinculos en una pestaña nueva" tal como lo muestra ésta imagen.

Coraline Y La Puerta Secreta (2009) REMUX 1080p Latino

479 vistas

Información de Coraline Y La Puerta Secreta (2009) REMUX 1080p Latino

Datos de la película

  • Calidad: Full 1080p
  • Audio: Español Latino DTS 5.1 BLURAY - Ingles DTS-HD 5.1 BLURAY
  • Subtitulos: Español Latino PGS - Ingles PGS
  • Resolución: 1920x1080p
  • Formato: MKV
  • Codec: H.264
  • Encoder: CinefiloCool
  • Mediainfo: Clic para Mostrar Datos Ver
  • Coraline (2009) REMUX 1080p Latino-CMHDD.mkv
    Format                      : Matroska
    Format version              : Version 4
    File size                   : 23.7 GiB
    Duration                    : 1 h 40 min
    Overall bit rate mode       : Variable
    Overall bit rate            : 33.7 Mb/s
    Movie name                  : Coraline (2009) CinemaniaHDD.Net
    Encoded date                : UTC 2022-04-07 06:19:45
    Writing application         : mkvmerge v56.1.0 ('My Friend') 64-bit
    Writing library             : libebml v1.4.2 + libmatroska v1.6.4
    Attachments                 : CINEMANIAHD.png

    Video
    ID                          : 1
    Format                      : AVC
    Format/Info                 : Advanced Video Codec
    Format profile              : High@L4.1
    Format settings             : CABAC / 3 Ref Frames
    Format settings, CABAC      : Yes
    Format settings, Reference  : 3 frames
    Format settings, GOP        : M=3, N=24
    Codec ID                    : V_MPEG4/ISO/AVC
    Duration                    : 1 h 40 min
    Bit rate mode               : Variable
    Bit rate                    : 29.5 Mb/s
    Maximum bit rate            : 40.0 Mb/s
    Width                       : 1 920 pixels
    Height                      : 1 080 pixels
    Display aspect ratio        : 16:9
    Frame rate mode             : Constant
    Frame rate                  : 23.976 (24000/1001) FPS
    Color space                 : YUV
    Chroma subsampling          : 4:2:0
    Bit depth                   : 8 bits
    Scan type                   : Progressive
    Bits/(Pixel*Frame)          : 0.593
    Stream size                 : 20.7 GiB (87%)
    Title                       : REMUX HD1080p [CinemaniaHDD]
    Default                     : Yes
    Forced                      : Yes

    Audio #1
    ID                          : 2
    Format                      : DTS
    Format/Info                 : Digital Theater Systems
    Codec ID                    : A_DTS
    Duration                    : 1 h 40 min
    Bit rate mode               : Constant
    Bit rate                    : 768 kb/s
    Channel(s)                  : 6 channels
    Channel layout              : C L R Ls Rs LFE
    Sampling rate               : 48.0 kHz
    Frame rate                  : 93.750 FPS (512 SPF)
    Bit depth                   : 24 bits
    Compression mode            : Lossy
    Delay relative to video     : -4 ms
    Stream size                 : 553 MiB (2%)
    Title                       : Español Latino [CinemaniaHDD]
    Language                    : Spanish
    Default                     : Yes
    Forced                      : Yes

    Audio #2
    ID                          : 3
    Format                      : DTS XLL
    Format/Info                 : Digital Theater Systems
    Commercial name             : DTS-HD Master Audio
    Codec ID                    : A_DTS
    Duration                    : 1 h 40 min
    Bit rate mode               : Variable
    Bit rate                    : 3 449 kb/s
    Channel(s)                  : 6 channels
    Channel layout              : C L R Ls Rs LFE
    Sampling rate               : 48.0 kHz
    Frame rate                  : 93.750 FPS (512 SPF)
    Bit depth                   : 24 bits
    Compression mode            : Lossless
    Delay relative to video     : -4 ms
    Stream size                 : 2.42 GiB (10%)
    Title                       : Ingles [CinemaniaHDD]
    Language                    : English
    Default                     : No
    Forced                      : No

    Text #1
    ID                          : 4
    Format                      : PGS
    Muxing mode                 : zlib
    Codec ID                    : S_HDMV/PGS
    Codec ID/Info               : Picture based subtitle format used on BDs/HD-DVDs
    Duration                    : 1 h 37 min
    Bit rate                    : 23.0 kb/s
    Count of elements           : 1738
    Stream size                 : 16.1 MiB (0%)
    Title                       : Español-PGS [CinemaniaHDD]
    Language                    : Spanish
    Default                     : No
    Forced                      : No

    Text #2
    ID                          : 5
    Format                      : PGS
    Muxing mode                 : zlib
    Codec ID                    : S_HDMV/PGS
    Codec ID/Info               : Picture based subtitle format used on BDs/HD-DVDs
    Duration                    : 1 h 32 min
    Bit rate                    : 33.6 kb/s
    Count of elements           : 2598
    Stream size                 : 22.2 MiB (0%)
    Title                       : Ingles-PGS [CinemaniaHDD]
    Language                    : English
    Default                     : No
    Forced                      : No

    Text #3
    ID                          : 6
    Format                      : UTF-8
    Codec ID                    : S_TEXT/UTF8
    Codec ID/Info               : UTF-8 Plain Text
    Duration                    : 1 h 37 min
    Bit rate                    : 0 b/s
    Count of elements           : 20
    Stream size                 : 542 Bytes (0%)
    Title                       : Forzados-SRT [CinemaniaHDD]
    Language                    : Spanish
    Default                     : Yes
    Forced                      : Yes

    Text #4
    ID                          : 7
    Format                      : UTF-8
    Codec ID                    : S_TEXT/UTF8
    Codec ID/Info               : UTF-8 Plain Text
    Duration                    : 1 h 37 min
    Bit rate                    : 36 b/s
    Count of elements           : 864
    Stream size                 : 26.1 KiB (0%)
    Title                       : Español-SRT [CinemaniaHDD]
    Language                    : Spanish
    Default                     : No
    Forced                      : No

    Menu
    00:00:00.000                : :The Pink Palace
    00:08:12.283                : :A Little Me
    00:13:56.210                : :Your Other Mother
    00:18:26.730                : :Incredible Dream
    00:23:09.471                : :The Amazing Bobinsky
    00:26:45.770                : :Spink & Forcible
    00:32:34.577                : :In the Garden
    00:36:57.173                : :Jumping Mouse Circus
    00:40:39.186                : :Unlocking the Door
    00:44:19.907                : :Dream Come True
    00:50:50.005                : :A Special Surprise
    00:55:04.551                : :Good Kitty
    01:00:19.824                : :It's All A Trap
    01:05:54.867                : :Only One Thing To Do
    01:11:01.590                : :Let's Play A Game
    01:15:23.685                : :Unwinding The Web
    01:17:27.893                : :Nobody Likes A Rat
    01:21:20.709                : :Staying Forever
    01:27:05.345                : :Over And Done
    01:34:42.635                : :End Titles

  • Peso: 23.7 GiB

Sinopsis

Descargar Coraline Y La Puerta Secreta (2009) REMUX 1080p Latino. Película de animación en la que se nos cuenta la historia de Coraline, una jovencita que descubre en su nueva casa una puerta secreta y decide abrirla. Al hacerlo, descubre una segunda versión de su vida, una vida paralela a la que ella tiene. A primera vista, la realidad paralela es curiosamente parecida a su vida de verdad, aunque mucho mejor. Pero cuando su increíble y maravillosa aventura empieza a tomar un cariz peligroso y su otra madre intenta mantenerla a su lado para siempre, Coraline deberá recurrir a su determinación y coraje, a la ayuda de los vecinos y a un gato negro con el don del habla para salvar a sus auténticos padres, a unos niños fantasmas y regresar a casa.

Disponible Solo Para VIP!!!

Nota: El source Es Un Bluray 3D, Mejor Calidad De Video que el BD50 con Video VC1 😀

Ficha técnica

Video trailer de la película

Enlaces de descarga

Rip de Bluray

Descargar Coraline Y La Puerta Secreta (2009) REMUX 1080p Latino


Aportes de DPeliculasHDmega la pass es:dpeliculashdmega.org Aportes de CinemaniaHD la pass es:cinemaniahdd.com
Guardado en : Animación , Familia , Fantasía , Remux

Películas relacionadas

descargar Coraline Y La Puerta Secreta (2009) REMUX 1080p Latino Full 1080p 1080p gratis, Coraline Y La Puerta Secreta (2009) REMUX 1080p Latino Full 1080p mega 1 link, Coraline Y La Puerta Secreta (2009) REMUX 1080p Latino Full 1080p pelicula completa, descargar Coraline Y La Puerta Secreta (2009) REMUX 1080p Latino Full 1080p gratis en mega.

Coraline Y La Puerta Secreta (2009) REMUX 1080p Latino pelicula full hd, Coraline Y La Puerta Secreta (2009) REMUX 1080p Latino mega latino, Coraline Y La Puerta Secreta (2009) REMUX 1080p Latino 4k latino, Coraline Y La Puerta Secreta (2009) REMUX 1080p Latino pelicula completa, Coraline Y La Puerta Secreta (2009) REMUX 1080p Latino descargar gratis, descargar Coraline Y La Puerta Secreta (2009) REMUX 1080p Latino pelicula latino, Coraline Y La Puerta Secreta (2009) REMUX 1080p Latino 1 link mega, Coraline Y La Puerta Secreta (2009) REMUX 1080p Latino 1 link google drive, Coraline Y La Puerta Secreta (2009) REMUX 1080p Latino hd 1080p latino.
Comentarios 0