×

¿Problemas para descargar con Mozilla, EDGE? Deshabilita la opción "Abrir vinculos en una pestaña nueva" tal como lo muestra ésta imagen.

Jamaica bajo cero (1993) REMUX 1080p Latino

341 vistas

Información de Jamaica bajo cero (1993) REMUX 1080p Latino

Datos de la película

  • Calidad: Full 1080p
  • Audio: Español Latino AC3 2.0 WEB-DL - Ingles DTS 5.1 BLURAY
  • Subtitulos: Español Latino SRT - Ingles SRT
  • Resolución: 1920x1080p
  • Formato: MKV
  • Codec: H.264
  • Encoder: CinefiloCool
  • Mediainfo: Clic para Mostrar Datos Ver
  • Jamaica Bajo Cero (1993) REMUX 1080p Latino-CMHDD.mkv
    Format                      : Matroska
    Format version              : Version 4
    File size                   : 18.7 GiB
    Duration                    : 1 h 38 min
    Overall bit rate mode       : Variable
    Overall bit rate            : 27.2 Mb/s
    Movie name                  : Cool Runnings (1993) CinemaniaHDD.Net
    Encoded date                : UTC 2023-03-19 06:29:01
    Writing application         : mkvmerge v56.1.0 ('My Friend') 64-bit
    Writing library             : libebml v1.4.2 + libmatroska v1.6.4
    Attachments                 : CINEMANIAHD.png

    Video
    ID                          : 1
    Format                      : AVC
    Format/Info                 : Advanced Video Codec
    Format profile              : High@L4.1
    Format settings             : CABAC / 4 Ref Frames
    Format settings, CABAC      : Yes
    Format settings, Reference  : 4 frames
    Codec ID                    : V_MPEG4/ISO/AVC
    Duration                    : 1 h 38 min
    Bit rate mode               : Variable
    Bit rate                    : 22.8 Mb/s
    Maximum bit rate            : 32.0 Mb/s
    Width                       : 1 920 pixels
    Height                      : 1 080 pixels
    Display aspect ratio        : 16:9
    Frame rate mode             : Constant
    Frame rate                  : 23.976 (24000/1001) FPS
    Color space                 : YUV
    Chroma subsampling          : 4:2:0
    Bit depth                   : 8 bits
    Scan type                   : Progressive
    Bits/(Pixel*Frame)          : 0.459
    Stream size                 : 15.6 GiB (84%)
    Title                       : REMUX HD1080p [CinemaniaHDD]
    Default                     : Yes
    Forced                      : Yes

    Audio #1
    ID                          : 2
    Format                      : AC-3
    Format/Info                 : Audio Coding 3
    Commercial name             : Dolby Digital
    Codec ID                    : A_AC3
    Duration                    : 1 h 38 min
    Bit rate mode               : Constant
    Bit rate                    : 256 kb/s
    Channel(s)                  : 2 channels
    Channel layout              : L R
    Sampling rate               : 48.0 kHz
    Frame rate                  : 31.250 FPS (1536 SPF)
    Compression mode            : Lossy
    Stream size                 : 180 MiB (1%)
    Title                       : Español Latino [CinemaniaHDD]
    Language                    : Spanish
    Service kind                : Complete Main
    Default                     : Yes
    Forced                      : Yes

    Audio #2
    ID                          : 3
    Format                      : DTS XLL
    Format/Info                 : Digital Theater Systems
    Commercial name             : DTS-HD Master Audio
    Codec ID                    : A_DTS
    Duration                    : 1 h 38 min
    Bit rate mode               : Variable
    Bit rate                    : 4 177 kb/s
    Channel(s)                  : 6 channels
    Channel layout              : C L R Ls Rs LFE
    Sampling rate               : 48.0 kHz
    Frame rate                  : 93.750 FPS (512 SPF)
    Bit depth                   : 24 bits
    Compression mode            : Lossless
    Stream size                 : 2.87 GiB (15%)
    Title                       : Ingles [CinemaniaHDD]
    Language                    : English
    Default                     : No
    Forced                      : No

    Text #1
    ID                          : 4
    Format                      : UTF-8
    Codec ID                    : S_TEXT/UTF8
    Codec ID/Info               : UTF-8 Plain Text
    Duration                    : 1 h 31 min
    Bit rate                    : 0 b/s
    Count of elements           : 12
    Stream size                 : 411 Bytes (0%)
    Title                       : Forzados-SRT [CinemaniaHDD]
    Language                    : Spanish
    Default                     : Yes
    Forced                      : Yes

    Text #2
    ID                          : 5
    Format                      : UTF-8
    Codec ID                    : S_TEXT/UTF8
    Codec ID/Info               : UTF-8 Plain Text
    Duration                    : 1 h 33 min
    Bit rate                    : 66 b/s
    Count of elements           : 1240
    Stream size                 : 45.3 KiB (0%)
    Title                       : Español-SRT [CinemaniaHDD]
    Language                    : Spanish
    Default                     : No
    Forced                      : No

    Text #3
    ID                          : 6
    Format                      : UTF-8
    Codec ID                    : S_TEXT/UTF8
    Codec ID/Info               : UTF-8 Plain Text
    Duration                    : 1 h 32 min
    Bit rate                    : 70 b/s
    Count of elements           : 1179
    Stream size                 : 47.7 KiB (0%)
    Title                       : Ingles [CinemaniaHDD]
    Language                    : English
    Default                     : No
    Forced                      : No

    Menu
    00:00:00.000                : Program Start
    00:00:17.017                : Opening Credits
    00:04:57.130                : Sanka's Pushcart Derby
    00:07:46.466                : 100 Meter Finals
    00:14:41.881                : Convincing Irving Blitzer
    00:18:30.109                : First Jamaican Bobsled Team
    00:26:25.083                : Training Begins
    00:30:28.827                : Send Us To The Olympics!
    00:40:31.929                : Running On Ice
    00:45:08.205                : First Run
    00:53:42.052                : Irv's Past Revealed
    00:56:57.414                : Pride And Power
    01:06:29.485                : Qualifying Run
    01:09:59.529                : Irv Faces The Alliance
    01:15:05.042                : Junior Takes A Stand
    01:19:33.185                : A Dismal Start
    01:23:08.817                : Bobsled Jamaican Style
    01:25:24.953                : Irv Explains Himself
    01:28:08.783                : Jamaican Heroes
    01:34:57.191                : End Credits

  • Peso: 18.7 GiB

Sinopsis

Descargar Jamaica bajo cero (1993) REMUX 1080p Latino. Derice, Sanka, Junio Bevil y Yul son cuatro atletas jamaicanos, sin apenas recursos y sin tener conocimiento o adaptación a la nieve, pero dispuestos a alcanzar una difícil meta: ganar la medalla de oro nada menos que en los Juegos Olímpicos de invierno de Calgary, Canadá. Para ello reclutan como entrenador a un ex-campeón norteamericano (John Candy), quien aceptará la imposible tarea debido a su precaria situación económica.

Ficha técnica

Video trailer de la película

Enlaces de descarga

Rip de Bluray

Descargar Jamaica bajo cero (1993) REMUX 1080p Latino


Aportes de DPeliculasHDmega la pass es:dpeliculashdmega.org Aportes de CinemaniaHD la pass es:cinemaniahdd.com Aportes recientes:cinemaniahdd.net
Guardado en : Aventura , Comedia , Drama , Remux

Películas relacionadas

descargar Jamaica bajo cero (1993) REMUX 1080p Latino Full 1080p 1080p gratis, Jamaica bajo cero (1993) REMUX 1080p Latino Full 1080p mega 1 link, Jamaica bajo cero (1993) REMUX 1080p Latino Full 1080p pelicula completa, descargar Jamaica bajo cero (1993) REMUX 1080p Latino Full 1080p gratis en mega.

Jamaica bajo cero (1993) REMUX 1080p Latino pelicula full hd, Jamaica bajo cero (1993) REMUX 1080p Latino mega latino, Jamaica bajo cero (1993) REMUX 1080p Latino 4k latino, Jamaica bajo cero (1993) REMUX 1080p Latino pelicula completa, Jamaica bajo cero (1993) REMUX 1080p Latino descargar gratis, descargar Jamaica bajo cero (1993) REMUX 1080p Latino pelicula latino, Jamaica bajo cero (1993) REMUX 1080p Latino 1 link mega, Jamaica bajo cero (1993) REMUX 1080p Latino 1 link google drive, Jamaica bajo cero (1993) REMUX 1080p Latino hd 1080p latino.
Comentarios 0