×

¿Problemas para descargar con Mozilla, EDGE? Deshabilita la opción "Abrir vinculos en una pestaña nueva" tal como lo muestra ésta imagen.

Control De Tránsito (2018) AMZN WEB-DL 1080p Latino

908 vistas

Información de Control De Tránsito (2018) AMZN WEB-DL 1080p Latino

Datos de la película

  • Calidad: WEBDL
  • Audio: Español Latino AC3 2.0 - Ingles AC3 5.1 HBO
  • Subtitulos: Español Latino SRT- FORZADOS SRT
  • Resolución: 1920x1080
  • Formato: MKV
  • Codec: H.264
  • Encoder: cinemaniahdd
  • Mediainfo: Clic para Mostrar Datos Ver
  • Control De Tránsito (2018) AMZN WEB-DL 1080p Latino.mkv
    Format                      : Matroska
    Format version              : Version 4
    File size                   : 2.87 GiB
    Duration                    : 30 min 54 s
    Overall bit rate            : 13.3 Mb/s
    Movie name                  : Control De Tránsito (2018) - CinemaniaHDD.Net
    Encoded date                : UTC 2019-11-12 01:21:28
    Writing application         : mkvmerge v38.0.0 ('The Silent Type') 64-bit
    Writing library             : libebml v1.3.9 + libmatroska v1.5.2

    Video
    ID                          : 1
    Format                      : AVC
    Format/Info                 : Advanced Video Codec
    Format profile              : High@L4
    Format settings             : CABAC / 4 Ref Frames
    Format settings, CABAC      : Yes
    Format settings, ReFrames   : 4 frames
    Codec ID                    : V_MPEG4/ISO/AVC
    Duration                    : 30 min 54 s
    Bit rate                    : 12.8 Mb/s
    Width                       : 1 920 pixels
    Height                      : 1 080 pixels
    Display aspect ratio        : 16:9
    Frame rate mode             : Constant
    Frame rate                  : 23.976 (24000/1001) FPS
    Color space                 : YUV
    Chroma subsampling          : 4:2:0
    Bit depth                   : 8 bits
    Scan type                   : Progressive
    Bits/(Pixel*Frame)          : 0.258
    Stream size                 : 2.77 GiB (96%)
    Title                       : CinemaniaHDD
    Default                     : Yes
    Forced                      : No
    Color range                 : Limited
    Color primaries             : BT.709
    Transfer characteristics    : BT.709
    Matrix coefficients         : BT.709

    Audio #1
    ID                          : 2
    Format                      : AC-3
    Format/Info                 : Audio Coding 3
    Commercial name             : Dolby Digital
    Codec ID                    : A_AC3
    Duration                    : 30 min 54 s
    Bit rate mode               : Constant
    Bit rate                    : 256 kb/s
    Channel(s)                  : 2 channels
    Channel layout              : L R
    Sampling rate               : 48.0 kHz
    Frame rate                  : 31.250 FPS (1536 SPF)
    Bit depth                   : 16 bits
    Compression mode            : Lossy
    Stream size                 : 56.6 MiB (2%)
    Title                       : Español latino [CinemaniaHDD]
    Language                    : Spanish
    Service kind                : Complete Main
    Default                     : Yes
    Forced                      : No

    Audio #2
    ID                          : 3
    Format                      : E-AC-3
    Format/Info                 : Enhanced AC-3
    Commercial name             : Dolby Digital Plus
    Codec ID                    : A_EAC3
    Duration                    : 30 min 54 s
    Bit rate mode               : Constant
    Bit rate                    : 224 kb/s
    Channel(s)                  : 2 channels
    Channel layout              : L R
    Sampling rate               : 48.0 kHz
    Frame rate                  : 31.250 FPS (1536 SPF)
    Compression mode            : Lossy
    Stream size                 : 49.5 MiB (2%)
    Title                       : Inglés [CinemaniaHDD]
    Language                    : English
    Service kind                : Complete Main
    Default                     : No
    Forced                      : No

    Text #1
    ID                          : 4
    Format                      : UTF-8
    Codec ID                    : S_TEXT/UTF8
    Codec ID/Info               : UTF-8 Plain Text
    Duration                    : 30 min 16 s
    Bit rate                    : 1 b/s
    Count of elements           : 9
    Stream size                 : 354 Bytes (0%)
    Title                       : Forzados [CinemaniaHDD]
    Language                    : Spanish
    Default                     : Yes
    Forced                      : Yes

    Text #2
    ID                          : 5
    Format                      : UTF-8
    Codec ID                    : S_TEXT/UTF8
    Codec ID/Info               : UTF-8 Plain Text
    Duration                    : 30 min 16 s
    Bit rate                    : 58 b/s
    Count of elements           : 349
    Stream size                 : 12.9 KiB (0%)
    Title                       : Español latino [CinemaniaHDD]
    Language                    : Spanish
    Default                     : No
    Forced                      : No

    Text #3
    ID                          : 6
    Format                      : UTF-8
    Codec ID                    : S_TEXT/UTF8
    Codec ID/Info               : UTF-8 Plain Text
    Duration                    : 29 min 59 s
    Bit rate                    : 54 b/s
    Count of elements           : 397
    Stream size                 : 11.9 KiB (0%)
    Title                       : Inglés [CinemaniaHDD]
    Language                    : English
    Default                     : No
    Forced                      : No

     

  • Peso: 2.87 GiB

Sinopsis

Este cortometraje de HBO nominado al Oscar® presenta la historia de King, una maestra afroamericana de 26 años que sufrió un episodio de violencia injustificada con la policía a partir de una revisión de tránsito rutinaria que acabó en arresto.

Ficha técnica

Video trailer de la película

Enlaces de descarga

Rip de Bluray

Descargar Control De Tránsito (2018) AMZN WEB-DL 1080p Latino




Aportes de DPeliculasHDmega la pass es:dpeliculashdmega.org Aportes de CinemaniaHD la pass es:cinemaniahdd.com
Guardado en : Documental , HBO

Películas relacionadas

Control De Tránsito (2018) AMZN WEB-DL 1080p Latino pelicula full hd, Control De Tránsito (2018) AMZN WEB-DL 1080p Latino mega latino, Control De Tránsito (2018) AMZN WEB-DL 1080p Latino 4k latino, Control De Tránsito (2018) AMZN WEB-DL 1080p Latino pelicula completa, Control De Tránsito (2018) AMZN WEB-DL 1080p Latino descargar gratis, descargar Control De Tránsito (2018) AMZN WEB-DL 1080p Latino pelicula latino, Control De Tránsito (2018) AMZN WEB-DL 1080p Latino 1 link mega, Control De Tránsito (2018) AMZN WEB-DL 1080p Latino 1 link google drive, Control De Tránsito (2018) AMZN WEB-DL 1080p Latino hd 1080p latino.
Comentarios 0