×

¿Problemas para descargar con Mozilla, EDGE? Deshabilita la opción "Abrir vinculos en una pestaña nueva" tal como lo muestra ésta imagen.

Contrarreloj (2023) WEB-DL 1080p Latino

181 vistas

Información de Contrarreloj (2023) WEB-DL 1080p Latino

Datos de la película

  • Calidad: WEBDL
  • Audio: Español Latino AC3 2.0 WEB-DL - Ingles AC3 5.1 WEB-DL
  • Subtitulos: Español Latino SRT- FORZADOS SRT
  • Resolución: 1920x802p
  • Formato: MKV
  • Codec: H.264
  • Encoder: Melkor
  • Mediainfo: Clic para Mostrar Datos Ver
  • Contrareloj (2023) WEB 1080p Latino.mkv
    Format                      : Matroska
    Format version              : Version 4
    File size                   : 7.00 GiB
    Duration                    : 1 h 31 min
    Overall bit rate            : 11.0 Mb/s
    Movie name                  : Retribution (2023) CinemaniaHDD.Net
    Encoded date                : UTC 2023-10-17 02:23:25
    Writing application         : mkvmerge v56.1.0 ('My Friend') 64-bit
    Writing library             : libebml v1.4.2 + libmatroska v1.6.4
    Attachments                 : CINEMANIAHD.png
    Site                        : CinemaniaHDD.Net
    Uploader                    : Melkor

    Video
    ID                          : 1
    Format                      : AVC
    Format/Info                 : Advanced Video Codec
    Format profile              : High@L4
    Format settings             : CABAC / 5 Ref Frames
    Format settings, CABAC      : Yes
    Format settings, Reference  : 5 frames
    Codec ID                    : V_MPEG4/ISO/AVC
    Duration                    : 1 h 31 min
    Bit rate                    : 9 974 kb/s
    Width                       : 1 920 pixels
    Height                      : 802 pixels
    Display aspect ratio        : 2.40:1
    Frame rate mode             : Constant
    Frame rate                  : 23.976 (23976/1000) FPS
    Original frame rate         : 23.976 (24000/1001) FPS
    Color space                 : YUV
    Chroma subsampling          : 4:2:0
    Bit depth                   : 8 bits
    Scan type                   : Progressive
    Bits/(Pixel*Frame)          : 0.270
    Stream size                 : 6.35 GiB (91%)
    Title                       : Web HD1080p [CinemaniaHDD]
    Default                     : Yes
    Forced                      : Yes
    Color range                 : Limited
    Color primaries             : BT.709
    Transfer characteristics    : BT.709
    Matrix coefficients         : BT.709

    Audio #1
    ID                          : 2
    Format                      : AC-3
    Format/Info                 : Audio Coding 3
    Commercial name             : Dolby Digital
    Codec ID                    : A_AC3
    Duration                    : 1 h 31 min
    Bit rate mode               : Constant
    Bit rate                    : 256 kb/s
    Channel(s)                  : 2 channels
    Channel layout              : L R
    Sampling rate               : 48.0 kHz
    Frame rate                  : 31.250 FPS (1536 SPF)
    Compression mode            : Lossy
    Stream size                 : 167 MiB (2%)
    Title                       : Español Latino [CinemaniaHDD]
    Language                    : Spanish
    Service kind                : Complete Main
    Default                     : Yes
    Forced                      : Yes

    Audio #2
    ID                          : 3
    Format                      : E-AC-3 JOC
    Format/Info                 : Enhanced AC-3 with Joint Object Coding
    Commercial name             : Dolby Digital Plus with Dolby Atmos
    Codec ID                    : A_EAC3
    Duration                    : 1 h 31 min
    Bit rate mode               : Constant
    Bit rate                    : 768 kb/s
    Channel(s)                  : 6 channels
    Channel layout              : L R C LFE Ls Rs
    Sampling rate               : 48.0 kHz
    Frame rate                  : 31.250 FPS (1536 SPF)
    Compression mode            : Lossy
    Stream size                 : 501 MiB (7%)
    Title                       : Ingles [CinemaniaHDD]
    Language                    : English
    Service kind                : Complete Main
    Default                     : No
    Forced                      : No
    Complexity index            : 16
    Number of dynamic objects   : 15
    Bed channel count           : 1 channel
    Bed channel configuration   : LFE

    Text #1
    ID                          : 4
    Format                      : UTF-8
    Codec ID                    : S_TEXT/UTF8
    Codec ID/Info               : UTF-8 Plain Text
    Duration                    : 1 h 10 min
    Bit rate                    : 0 b/s
    Count of elements           : 11
    Stream size                 : 231 Bytes (0%)
    Title                       : Forzados-SRT [CinemaniaHDD]
    Language                    : Spanish
    Default                     : Yes
    Forced                      : Yes

    Text #2
    ID                          : 5
    Format                      : UTF-8
    Codec ID                    : S_TEXT/UTF8
    Codec ID/Info               : UTF-8 Plain Text
    Duration                    : 1 h 23 min
    Bit rate                    : 59 b/s
    Count of elements           : 1089
    Stream size                 : 36.1 KiB (0%)
    Title                       : Español-SRT [CinemaniaHDD]
    Language                    : Spanish
    Default                     : No
    Forced                      : No

    Text #3
    ID                          : 6
    Format                      : UTF-8
    Codec ID                    : S_TEXT/UTF8
    Codec ID/Info               : UTF-8 Plain Text
    Duration                    : 1 h 27 min
    Bit rate                    : 66 b/s
    Count of elements           : 1434
    Stream size                 : 42.8 KiB (0%)
    Title                       : Ingles-SRT [CinemaniaHDD]
    Language                    : English
    Default                     : No
    Forced                      : No

    Menu
    00:00:00.000                : Chapter 01
    00:03:01.181                : Chapter 02
    00:14:05.470                : Chapter 03
    00:23:32.662                : Chapter 04
    00:31:34.519                : Chapter 05
    00:42:39.768                : Chapter 06
    00:54:15.422                : Chapter 07
    01:02:33.920                : Chapter 08
    01:13:42.547                : Chapter 09
    01:25:53.528                : Chapter 10

  • Peso: 7.00 GiB

Sinopsis

Descargar Contrarreloj (2023) WEB-DL 1080p Latino. Un ejecutivo de un banco recibe, mientras conduce a sus hijos a la escuela, una amenaza de bomba dentro de su auto, el cual explotará si se detienen o salen del vehículo antes de conseguir una elevada suma de dinero. Remake de la película española de 2015 «El Desconocido».

Ficha técnica

Video trailer de la película

Enlaces de descarga

Rip de Bluray

Descargar Contrarreloj (2023) WEB-DL 1080p Latino




Aportes de DPeliculasHDmega la pass es:dpeliculashdmega.org Aportes de CinemaniaHD la pass es:cinemaniahdd.com Aportes recientes:cinemaniahdd.net
Guardado en : Acción , Crimen , Misterio , Suspenso

Películas relacionadas

descargar Contrarreloj (2023) WEB-DL 1080p Latino WEBDL 1080p gratis, Contrarreloj (2023) WEB-DL 1080p Latino WEBDL mega 1 link, Contrarreloj (2023) WEB-DL 1080p Latino WEBDL pelicula completa, descargar Contrarreloj (2023) WEB-DL 1080p Latino WEBDL gratis en mega.

Contrarreloj (2023) WEB-DL 1080p Latino pelicula full hd, Contrarreloj (2023) WEB-DL 1080p Latino mega latino, Contrarreloj (2023) WEB-DL 1080p Latino 4k latino, Contrarreloj (2023) WEB-DL 1080p Latino pelicula completa, Contrarreloj (2023) WEB-DL 1080p Latino descargar gratis, descargar Contrarreloj (2023) WEB-DL 1080p Latino pelicula latino, Contrarreloj (2023) WEB-DL 1080p Latino 1 link mega, Contrarreloj (2023) WEB-DL 1080p Latino 1 link google drive, Contrarreloj (2023) WEB-DL 1080p Latino hd 1080p latino.
Comentarios 0