×

¿Problemas para descargar con Mozilla, EDGE? Deshabilita la opción "Abrir vinculos en una pestaña nueva" tal como lo muestra ésta imagen.

Contraband (2012) REMUX 1080p Latino – CMHDD

176 vistas

Información de Contraband (2012) REMUX 1080p Latino – CMHDD

Datos de la película

  • Calidad: Full 1080p
  • Audio: Español Latino DTS 5.1 BLURAY - Ingles DTS 5.1 BLURAY
  • Subtitulos: Español Latino PGS
  • Resolución: 1920x1080p
  • Formato: MKV
  • Codec: H.264
  • Encoder: Dracarys
  • Mediainfo: Clic para Mostrar Datos Ver
  • Format                      : Matroska
    Format version              : Version 4
    File size                   : 27.7 GiB
    Duration                    : 1 h 49 min
    Overall bit rate mode       : Variable
    Overall bit rate            : 36.2 Mb/s
    Movie name                  : Contraband (2012) REMUX 1080p Latino - CMHDD
    Encoded date                : UTC 2021-09-12 00:54:09
    Writing application         : mkvmerge v17.0.0 ('Be Ur Friend') 64-bit
    Writing library             : libebml v1.3.5 + libmatroska v1.4.8

    Video
    ID                          : 1
    Format                      : AVC
    Format/Info                 : Advanced Video Codec
    Format profile              : High@L4.1
    Format settings             : CABAC / 4 Ref Frames
    Format settings, CABAC      : Yes
    Format settings, Reference  : 4 frames
    Codec ID                    : V_MPEG4/ISO/AVC
    Duration                    : 1 h 49 min
    Bit rate mode               : Variable
    Bit rate                    : 31.7 Mb/s
    Maximum bit rate            : 35.0 Mb/s
    Width                       : 1 920 pixels
    Height                      : 1 080 pixels
    Display aspect ratio        : 16:9
    Frame rate mode             : Constant
    Frame rate                  : 23.976 (24000/1001) FPS
    Color space                 : YUV
    Chroma subsampling          : 4:2:0
    Bit depth                   : 8 bits
    Scan type                   : Progressive
    Bits/(Pixel*Frame)          : 0.638
    Stream size                 : 24.3 GiB (88%)
    Default                     : Yes
    Forced                      : No

    Audio #1
    ID                          : 2
    Format                      : DTS XLL
    Format/Info                 : Digital Theater Systems
    Commercial name             : DTS-HD Master Audio
    Codec ID                    : A_DTS
    Duration                    : 1 h 49 min
    Bit rate mode               : Variable
    Bit rate                    : 3 664 kb/s
    Channel(s)                  : 6 channels
    Channel layout              : C L R Ls Rs LFE
    Sampling rate               : 48.0 kHz
    Frame rate                  : 93.750 FPS (512 SPF)
    Bit depth                   : 24 bits
    Compression mode            : Lossless
    Stream size                 : 2.81 GiB (10%)
    Language                    : English
    Default                     : No
    Forced                      : No

    Audio #2
    ID                          : 3
    Format                      : DTS
    Format/Info                 : Digital Theater Systems
    Codec ID                    : A_DTS
    Duration                    : 1 h 49 min
    Bit rate mode               : Constant
    Bit rate                    : 768 kb/s
    Channel(s)                  : 6 channels
    Channel layout              : C L R Ls Rs LFE
    Sampling rate               : 48.0 kHz
    Frame rate                  : 93.750 FPS (512 SPF)
    Bit depth                   : 24 bits
    Compression mode            : Lossy
    Stream size                 : 602 MiB (2%)
    Language                    : Spanish
    Default                     : Yes
    Forced                      : No

    Text #1
    ID                          : 4
    Format                      : PGS
    Muxing mode                 : zlib
    Codec ID                    : S_HDMV/PGS
    Codec ID/Info               : Picture based subtitle format used on BDs/HD-DVDs
    Duration                    : 1 h 42 min
    Bit rate                    : 27.7 kb/s
    Count of elements           : 2608
    Stream size                 : 20.3 MiB (0%)
    Language                    : Spanish
    Default                     : No
    Forced                      : No

    Text #2
    ID                          : 5
    Format                      : PGS
    Muxing mode                 : zlib
    Codec ID                    : S_HDMV/PGS
    Codec ID/Info               : Picture based subtitle format used on BDs/HD-DVDs
    Duration                    : 56 min 49 s
    Bit rate                    : 103 b/s
    Count of elements           : 6
    Stream size                 : 43.2 KiB (0%)
    Language                    : Spanish
    Default                     : No
    Forced                      : No

    Menu
    00:00:00.000                : en:Chapter 1
    00:08:26.255                : en:Chapter 2
    00:14:46.260                : en:Chapter 3
    00:19:12.860                : en:Chapter 4
    00:24:52.365                : en:Chapter 5
    00:29:12.625                : en:Chapter 6
    00:34:39.744                : en:Chapter 7
    00:38:56.375                : en:Chapter 8
    00:45:36.942                : en:Chapter 9
    00:52:17.759                : en:Chapter 10
    00:59:56.092                : en:Chapter 11
    01:05:31.344                : en:Chapter 12
    01:10:03.991                : en:Chapter 13
    01:16:15.112                : en:Chapter 14
    01:21:17.372                : en:Chapter 15
    01:25:34.045                : en:Chapter 16
    01:30:15.910                : en:Chapter 17
    01:35:26.887                : en:Chapter 18
    01:39:01.143                : en:Chapter 19
    01:44:32.099                : en:Chapter 20

  • Peso: 27.7 GiB

Sinopsis

Hace tiempo que Chris Farraday (Mark Wahlberg) dejó el mundo de la delincuencia, pero cuando su cuñado Andy (Caleb Landry Jones) mete la pata en un asunto de drogas encargado por su implacable jefe Tim Briggs (Giovanni Ribisi), Chris se ve obligado a volver a hacer lo que mejor se le da, pasar contrabando, para pagar la deuda de Andy. Chris es un legendario contrabandista y no tarda en reunir a un equipo de primera con la ayuda de su mejor amigo, Sebastian (Ben Foster), y realizar un último viaje a Panamá para traer millones de dólares en billetes falsos. Pero las cosas no salen como estaba previsto y con solo unas horas para hacerse con el dinero, Chris deberá hacer uso de sus oxidadas habilidades y superar una traicionera red criminal con brutales narcos, polis y sicarios, antes de que su esposa Kate (Kate Beckinsale) y sus hijos se conviertan en objetivos.

Ficha técnica

Video trailer de la película

Enlaces de descarga

Rip de Bluray

Descargar Contraband (2012) REMUX 1080p Latino – CMHDD


Aportes de DPeliculasHDmega la pass es:dpeliculashdmega.org Aportes de CinemaniaHD la pass es:cinemaniahdd.com
Guardado en : Acción , Crimen , Drama , Suspenso

Películas relacionadas

  • Jaula Mental (2022) HD 1080p Latino

    Jaula Mental (2022) HD 1080p Latino

    2022
    Jaula Mental (2022) HD 1080p Latino

    1h 47m 2022

    Descargar Jaula Mental (2022) HD 1080p Latino. Cuando un asesino que imita otros crímenes comienza a...

    Director: Mauro Borrelli

    Género: Crimen

    Actores: Victoria Fox

  • Jaula Mental (2022) PLACEBO Full HD 1080p Latino

    Jaula Mental (2022) PLACEBO Full HD 1080p Latino

    2022
    Jaula Mental (2022) PLACEBO Full HD 1080p Latino

    1h 47m 2022

    Descargar Jaula Mental (2022) PLACEBO Full HD 1080p Latino. Cuando un asesino que imita otros crímenes...

    Director: Mauro Borrelli

    Género: Crimen

    Actores: Victoria Fox

  • Jaula Mental (2022) REMUX 1080p Latino

    Jaula Mental (2022) REMUX 1080p Latino

    2022
    Jaula Mental (2022) REMUX 1080p Latino

    1h 47m 2022

    Descargar Jaula Mental (2022) REMUX 1080p Latino. Cuando un asesino que imita otros crímenes comienza...

    Director: Mauro Borrelli

    Género: Crimen

    Actores: Victoria Fox

  • Transfusion (2023) HD 1080p Latino

    Transfusion (2023) HD 1080p Latino

    2023
    Transfusion (2023) HD 1080p Latino

    1h 45m 2023

    Descargar Transfusion (2023) HD 1080p Latino. Un antiguo agente de las Fuerzas Especiales se ve empujado...

    Director: Matt Nable

    Género: Crimen

    Actores: Trystan Go

  • Transfusion (2023) PLACEBO Full HD 1080p Latino

    Transfusion (2023) PLACEBO Full HD 1080p Latino

    2023
    Transfusion (2023) PLACEBO Full HD 1080p Latino

    1h 45m 2023

    Descargar Transfusion (2023) PLACEBO Full HD 1080p Latino. Un antiguo agente de las Fuerzas Especiales...

    Director: Matt Nable

    Género: Crimen

    Actores: Trystan Go

descargar Contraband (2012) REMUX 1080p Latino – CMHDD Full 1080p 1080p gratis, Contraband (2012) REMUX 1080p Latino – CMHDD Full 1080p mega 1 link, Contraband (2012) REMUX 1080p Latino – CMHDD Full 1080p pelicula completa, descargar Contraband (2012) REMUX 1080p Latino – CMHDD Full 1080p gratis en mega.

Contraband (2012) REMUX 1080p Latino – CMHDD pelicula full hd, Contraband (2012) REMUX 1080p Latino – CMHDD mega latino, Contraband (2012) REMUX 1080p Latino – CMHDD 4k latino, Contraband (2012) REMUX 1080p Latino – CMHDD pelicula completa, Contraband (2012) REMUX 1080p Latino – CMHDD descargar gratis, descargar Contraband (2012) REMUX 1080p Latino – CMHDD pelicula latino, Contraband (2012) REMUX 1080p Latino – CMHDD 1 link mega, Contraband (2012) REMUX 1080p Latino – CMHDD 1 link google drive, Contraband (2012) REMUX 1080p Latino – CMHDD hd 1080p latino.