×

¿Problemas para descargar con Mozilla, EDGE? Deshabilita la opción "Abrir vinculos en una pestaña nueva" tal como lo muestra ésta imagen.

Contagio (2011) REMUX 1080p Latino

1.259 vistas

Información de Contagio (2011) REMUX 1080p Latino

Datos de la película

  • Calidad: Full 1080p
  • Audio: Español Latino AC3 5.1 BLURAY - Ingles DTS 5.1 BLURAY
  • Subtitulos: Español Latino PGS - Ingles PGS
  • Resolución: 1920x1080
  • Formato: MKV
  • Codec: H.264
  • Encoder: cinemaniahdd
  • Mediainfo: Clic para Mostrar Datos Ver
  • Contagio (2011) REMUX 1080p Latino.mkv
    Format                      : Matroska
    Format version              : Version 4
    File size                   : 15.8 GiB
    Duration                    : 1 h 46 min
    Overall bit rate mode       : Variable
    Overall bit rate            : 21.2 Mb/s
    Movie name                  : Contagio (2011) - CinemaniaHDD.Net
    Encoded date                : UTC 2020-02-02 21:45:04
    Writing application         : mkvmerge v42.0.0 ('Overtime') 64-bit
    Writing library             : libebml v1.3.10 + libmatroska v1.5.2

    Video
    ID                          : 1
    Format                      : AVC
    Format/Info                 : Advanced Video Codec
    Format profile              : High@L4.1
    Format settings             : CABAC / 2 Ref Frames
    Format settings, CABAC      : Yes
    Format settings, ReFrames   : 2 frames
    Codec ID                    : V_MPEG4/ISO/AVC
    Duration                    : 1 h 46 min
    Bit rate mode               : Variable
    Bit rate                    : 16.8 Mb/s
    Width                       : 1 920 pixels
    Height                      : 1 080 pixels
    Display aspect ratio        : 16:9
    Frame rate mode             : Constant
    Frame rate                  : 23.976 (24000/1001) FPS
    Color space                 : YUV
    Chroma subsampling          : 4:2:0
    Bit depth                   : 8 bits
    Scan type                   : Progressive
    Bits/(Pixel*Frame)          : 0.339
    Stream size                 : 12.5 GiB (79%)
    Title                       : CinemaniaHDD
    Default                     : Yes
    Forced                      : No

    Audio #1
    ID                          : 2
    Format                      : AC-3
    Format/Info                 : Audio Coding 3
    Commercial name             : Dolby Digital
    Codec ID                    : A_AC3
    Duration                    : 1 h 42 min
    Bit rate mode               : Constant
    Bit rate                    : 448 kb/s
    Channel(s)                  : 6 channels
    Channel layout              : L R C LFE Ls Rs
    Sampling rate               : 48.0 kHz
    Frame rate                  : 31.250 FPS (1536 SPF)
    Bit depth                   : 16 bits
    Compression mode            : Lossy
    Stream size                 : 329 MiB (2%)
    Title                       : Español latino [CinemaniaHDD]
    Language                    : Spanish
    Service kind                : Complete Main
    Default                     : Yes
    Forced                      : No

    Audio #2
    ID                          : 3
    Format                      : AC-3
    Format/Info                 : Audio Coding 3
    Commercial name             : Dolby Digital
    Codec ID                    : A_AC3
    Duration                    : 1 h 46 min
    Bit rate mode               : Constant
    Bit rate                    : 256 kb/s
    Channel(s)                  : 2 channels
    Channel layout              : L R
    Sampling rate               : 48.0 kHz
    Frame rate                  : 31.250 FPS (1536 SPF)
    Bit depth                   : 16 bits
    Compression mode            : Lossy
    Stream size                 : 195 MiB (1%)
    Title                       : Español latino - DVD [CinemaniaHDD]
    Language                    : Spanish
    Service kind                : Complete Main
    Default                     : No
    Forced                      : No

    Audio #3
    ID                          : 4
    Format                      : DTS XLL
    Format/Info                 : Digital Theater Systems
    Commercial name             : DTS-HD Master Audio
    Codec ID                    : A_DTS
    Duration                    : 1 h 46 min
    Bit rate mode               : Variable
    Bit rate                    : 3 632 kb/s
    Channel(s)                  : 6 channels
    Channel layout              : C L R Ls Rs LFE
    Sampling rate               : 48.0 kHz
    Frame rate                  : 93.750 FPS (512 SPF)
    Bit depth                   : 24 bits
    Compression mode            : Lossless
    Stream size                 : 2.70 GiB (17%)
    Title                       : Inglés [CinemaniaHDD]
    Language                    : English
    Default                     : No
    Forced                      : No

    Text #1
    ID                          : 5
    Format                      : UTF-8
    Codec ID                    : S_TEXT/UTF8
    Codec ID/Info               : UTF-8 Plain Text
    Duration                    : 1 h 41 min
    Bit rate                    : 1 b/s
    Count of elements           : 55
    Stream size                 : 1.39 KiB (0%)
    Title                       : Forzados [CinemaniaHDD]
    Language                    : Spanish
    Default                     : Yes
    Forced                      : Yes

    Text #2
    ID                          : 6
    Format                      : UTF-8
    Codec ID                    : S_TEXT/UTF8
    Codec ID/Info               : UTF-8 Plain Text
    Duration                    : 1 h 41 min
    Bit rate                    : 62 b/s
    Count of elements           : 1247
    Stream size                 : 46.3 KiB (0%)
    Title                       : Español latino [CinemaniaHDD]
    Language                    : Spanish
    Default                     : No
    Forced                      : No

    Text #3
    ID                          : 7
    Format                      : PGS
    Muxing mode                 : zlib
    Codec ID                    : S_HDMV/PGS
    Codec ID/Info               : Picture based subtitle format used on BDs/HD-DVDs
    Duration                    : 1 h 45 min
    Bit rate                    : 33.8 kb/s
    Count of elements           : 2515
    Stream size                 : 25.5 MiB (0%)
    Title                       : Español latino [CinemaniaHDD]
    Language                    : Spanish
    Default                     : No
    Forced                      : No

    Text #4
    ID                          : 8
    Format                      : PGS
    Muxing mode                 : zlib
    Codec ID                    : S_HDMV/PGS
    Codec ID/Info               : Picture based subtitle format used on BDs/HD-DVDs
    Duration                    : 1 h 45 min
    Bit rate                    : 38.7 kb/s
    Count of elements           : 2662
    Stream size                 : 29.2 MiB (0%)
    Title                       : Inglés [CinemaniaHDD]
    Language                    : English
    Default                     : No
    Forced                      : No

    Menu
    00:00:00.000                : en:Chapter 1
    00:04:33.356                : en:Chapter 2
    00:07:26.780                : en:Chapter 3
    00:11:08.960                : en:Chapter 4
    00:14:20.818                : en:Chapter 5
    00:16:01.043                : en:Chapter 6
    00:17:44.814                : en:Chapter 7
    00:20:15.464                : en:Chapter 8
    00:22:23.634                : en:Chapter 9
    00:24:11.909                : en:Chapter 10
    00:26:55.781                : en:Chapter 11
    00:30:31.997                : en:Chapter 12
    00:34:17.097                : en:Chapter 13
    00:36:35.026                : en:Chapter 14
    00:38:40.735                : en:Chapter 15
    00:41:28.236                : en:Chapter 16
    00:42:51.068                : en:Chapter 17
    00:46:55.146                : en:Chapter 18
    00:49:49.403                : en:Chapter 19
    00:52:00.951                : en:Chapter 20
    00:53:57.609                : en:Chapter 21
    00:57:30.364                : en:Chapter 22
    01:00:54.234                : en:Chapter 23
    01:03:22.716                : en:Chapter 24
    01:07:42.392                : en:Chapter 25
    01:10:21.259                : en:Chapter 26
    01:12:34.225                : en:Chapter 27
    01:15:35.322                : en:Chapter 28
    01:18:10.227                : en:Chapter 29
    01:22:34.032                : en:Chapter 30
    01:25:23.410                : en:Chapter 31
    01:31:28.358                : en:Chapter 32
    01:34:35.295                : en:Chapter 33
    01:36:10.556                : en:Chapter 34
    01:41:28.332                : en:Chapter 35

     

  • Peso: 15.8 GiB

Sinopsis

De repente, sin saber cuál es su origen, aunque todo hace sospechar que comienza con el viaje de una norteamericana a un casino de Hong Kong, un virus mortal comienza a propagarse por todo el mundo. En pocos días, la enfermedad empieza a diezmar a la población. El contagio se produce por mero contacto entre los seres humanos. Un thriller realista y sin efectos especiales sobre los efectos de una epidemia.

Ficha técnica

Video trailer de la película

Enlaces de descarga

Rip de Bluray

Descargar Contagio (2011) REMUX 1080p Latino




Aportes de DPeliculasHDmega la pass es:dpeliculashdmega.org Aportes de CinemaniaHD la pass es:cinemaniahdd.com
Guardado en : Ciencia ficción , Drama , Remux , Suspenso

Películas relacionadas

descargar Contagio (2011) REMUX 1080p Latino Full 1080p 1080p gratis, Contagio (2011) REMUX 1080p Latino Full 1080p mega 1 link, Contagio (2011) REMUX 1080p Latino Full 1080p pelicula completa, descargar Contagio (2011) REMUX 1080p Latino Full 1080p gratis en mega.

Contagio (2011) REMUX 1080p Latino pelicula full hd, Contagio (2011) REMUX 1080p Latino mega latino, Contagio (2011) REMUX 1080p Latino 4k latino, Contagio (2011) REMUX 1080p Latino pelicula completa, Contagio (2011) REMUX 1080p Latino descargar gratis, descargar Contagio (2011) REMUX 1080p Latino pelicula latino, Contagio (2011) REMUX 1080p Latino 1 link mega, Contagio (2011) REMUX 1080p Latino 1 link google drive, Contagio (2011) REMUX 1080p Latino hd 1080p latino.
Comentarios 0