Contagio (2011) PLACEBO 1080p Latino

2.393 vistas
1 estrella2 estrellas3 estrellas4 estrellas5 estrellas (4 votos, promedio: 5,00 de 5)
Cargando...

Información de Contagio (2011) PLACEBO 1080p Latino

Datos de la película

  • Calidad: Full 1080p
  • Audio: Español Latino AC3 5.1 BLURAY - Ingles DTS 5.1 BLURAY
  • Subtitulos: Español Latino PGS - Ingles PGS
  • Resolución: 1920x1080
  • Formato: MKV
  • Codec: H.264
  • Encoder: cinemaniahdd
  • Mediainfo: Clic para Mostrar Datos Ver
  • Contagio (2011) PLACEBO 1080p Latino.mkv
    Format                      : Matroska
    Format version              : Version 4
    File size                   : 7.03 GiB
    Duration                    : 1 h 46 min
    Overall bit rate mode       : Variable
    Overall bit rate            : 9 450 kb/s
    Movie name                  : Contagio (2011) - CinemaniaHDD.Net
    Encoded date                : UTC 2020-02-03 03:21:58
    Writing application         : mkvmerge v42.0.0 ('Overtime') 64-bit
    Writing library             : libebml v1.3.10 + libmatroska v1.5.2

    Video
    ID                          : 1
    Format                      : AVC
    Format/Info                 : Advanced Video Codec
    Format profile              : High@L4.1
    Format settings             : CABAC / 4 Ref Frames
    Format settings, CABAC      : Yes
    Format settings, ReFrames   : 4 frames
    Codec ID                    : V_MPEG4/ISO/AVC
    Duration                    : 1 h 46 min
    Bit rate                    : 3 584 kb/s
    Width                       : 1 920 pixels
    Height                      : 1 080 pixels
    Display aspect ratio        : 16:9
    Frame rate mode             : Constant
    Frame rate                  : 23.976 (24000/1001) FPS
    Color space                 : YUV
    Chroma subsampling          : 4:2:0
    Bit depth                   : 8 bits
    Scan type                   : Progressive
    Bits/(Pixel*Frame)          : 0.072
    Stream size                 : 2.66 GiB (38%)
    Title                       : CinemaniaHDD
    Writing library             : x264 core 157 r2935 545de2f
    Encoding settings           : cabac=1 / ref=4 / deblock=1:0:0 / analyse=0x3:0x133 / me=tesa / subme=11 / psy=1 / psy_rd=1.00:0.00 / mixed_ref=1 / me_range=24 / chroma_me=1 / trellis=2 / 8x8dct=1 / cqm=0 / deadzone=21,11 / fast_pskip=0 / chroma_qp_offset=-2 / threads=34 / lookahead_threads=8 / sliced_threads=0 / nr=0 / decimate=1 / interlaced=0 / bluray_compat=0 / constrained_intra=0 / bframes=16 / b_pyramid=2 / b_adapt=2 / b_bias=0 / direct=3 / weightb=1 / open_gop=0 / weightp=2 / keyint=240 / keyint_min=24 / scenecut=40 / intra_refresh=0 / rc_lookahead=60 / rc=crf / mbtree=1 / crf=20.0 / qcomp=0.60 / qpmin=0 / qpmax=69 / qpstep=4 / vbv_maxrate=62500 / vbv_bufsize=78125 / crf_max=0.0 / nal_hrd=none / filler=0 / ip_ratio=1.40 / aq=1:1.00
    Default                     : Yes
    Forced                      : No
    Color range                 : Limited
    Color primaries             : BT.709
    Transfer characteristics    : BT.709
    Matrix coefficients         : BT.709

    Audio #1
    ID                          : 2
    Format                      : AC-3
    Format/Info                 : Audio Coding 3
    Commercial name             : Dolby Digital
    Codec ID                    : A_AC3
    Duration                    : 1 h 42 min
    Bit rate mode               : Constant
    Bit rate                    : 448 kb/s
    Channel(s)                  : 6 channels
    Channel layout              : L R C LFE Ls Rs
    Sampling rate               : 48.0 kHz
    Frame rate                  : 31.250 FPS (1536 SPF)
    Bit depth                   : 16 bits
    Compression mode            : Lossy
    Stream size                 : 329 MiB (5%)
    Title                       : Español latino [CinemaniaHDD]
    Language                    : Spanish
    Service kind                : Complete Main
    Default                     : Yes
    Forced                      : No

    Audio #2
    ID                          : 3
    Format                      : AC-3
    Format/Info                 : Audio Coding 3
    Commercial name             : Dolby Digital
    Codec ID                    : A_AC3
    Duration                    : 1 h 46 min
    Bit rate mode               : Constant
    Bit rate                    : 256 kb/s
    Channel(s)                  : 2 channels
    Channel layout              : L R
    Sampling rate               : 48.0 kHz
    Frame rate                  : 31.250 FPS (1536 SPF)
    Bit depth                   : 16 bits
    Compression mode            : Lossy
    Stream size                 : 195 MiB (3%)
    Title                       : Español latino - DVD [CinemaniaHDD]
    Language                    : Spanish
    Service kind                : Complete Main
    Default                     : No
    Forced                      : No

    Audio #3
    ID                          : 4
    Format                      : DTS
    Format/Info                 : Digital Theater Systems
    Codec ID                    : A_DTS
    Duration                    : 1 h 46 min
    Bit rate mode               : Constant
    Bit rate                    : 1 509 kb/s
    Channel(s)                  : 6 channels
    Channel layout              : C L R Ls Rs LFE
    Sampling rate               : 48.0 kHz
    Frame rate                  : 93.750 FPS (512 SPF)
    Bit depth                   : 24 bits
    Compression mode            : Lossy
    Stream size                 : 1.12 GiB (16%)
    Title                       : Inglés - core [CinemaniaHDD]
    Language                    : English
    Default                     : No
    Forced                      : No

    Audio #4
    ID                          : 5
    Format                      : DTS XLL
    Format/Info                 : Digital Theater Systems
    Commercial name             : DTS-HD Master Audio
    Codec ID                    : A_DTS
    Duration                    : 1 h 46 min
    Bit rate mode               : Variable
    Bit rate                    : 3 632 kb/s
    Channel(s)                  : 6 channels
    Channel layout              : C L R Ls Rs LFE
    Sampling rate               : 48.0 kHz
    Frame rate                  : 93.750 FPS (512 SPF)
    Bit depth                   : 24 bits
    Compression mode            : Lossless
    Stream size                 : 2.70 GiB (38%)
    Title                       : Inglés [CinemaniaHDD]
    Language                    : English
    Default                     : No
    Forced                      : No

    Text #1
    ID                          : 6
    Format                      : UTF-8
    Codec ID                    : S_TEXT/UTF8
    Codec ID/Info               : UTF-8 Plain Text
    Duration                    : 1 h 41 min
    Bit rate                    : 1 b/s
    Count of elements           : 55
    Stream size                 : 1.39 KiB (0%)
    Title                       : Forzados [CinemaniaHDD]
    Language                    : Spanish
    Default                     : Yes
    Forced                      : Yes

    Text #2
    ID                          : 7
    Format                      : UTF-8
    Codec ID                    : S_TEXT/UTF8
    Codec ID/Info               : UTF-8 Plain Text
    Duration                    : 1 h 41 min
    Bit rate                    : 62 b/s
    Count of elements           : 1247
    Stream size                 : 46.3 KiB (0%)
    Title                       : Español latino [CinemaniaHDD]
    Language                    : Spanish
    Default                     : No
    Forced                      : No

    Text #3
    ID                          : 8
    Format                      : PGS
    Muxing mode                 : zlib
    Codec ID                    : S_HDMV/PGS
    Codec ID/Info               : Picture based subtitle format used on BDs/HD-DVDs
    Duration                    : 1 h 45 min
    Bit rate                    : 33.8 kb/s
    Count of elements           : 2515
    Stream size                 : 25.5 MiB (0%)
    Title                       : Español latino [CinemaniaHDD]
    Language                    : Spanish
    Default                     : No
    Forced                      : No

    Text #4
    ID                          : 9
    Format                      : PGS
    Muxing mode                 : zlib
    Codec ID                    : S_HDMV/PGS
    Codec ID/Info               : Picture based subtitle format used on BDs/HD-DVDs
    Duration                    : 1 h 45 min
    Bit rate                    : 38.7 kb/s
    Count of elements           : 2662
    Stream size                 : 29.2 MiB (0%)
    Title                       : Inglés [CinemaniaHDD]
    Language                    : English
    Default                     : No
    Forced                      : No

    Menu
    00:00:00.000                : en:Chapter 1
    00:04:33.356                : en:Chapter 2
    00:07:26.780                : en:Chapter 3
    00:11:08.960                : en:Chapter 4
    00:14:20.818                : en:Chapter 5
    00:16:01.043                : en:Chapter 6
    00:17:44.814                : en:Chapter 7
    00:20:15.464                : en:Chapter 8
    00:22:23.634                : en:Chapter 9
    00:24:11.909                : en:Chapter 10
    00:26:55.781                : en:Chapter 11
    00:30:31.997                : en:Chapter 12
    00:34:17.097                : en:Chapter 13
    00:36:35.026                : en:Chapter 14
    00:38:40.735                : en:Chapter 15
    00:41:28.236                : en:Chapter 16
    00:42:51.068                : en:Chapter 17
    00:46:55.146                : en:Chapter 18
    00:49:49.403                : en:Chapter 19
    00:52:00.951                : en:Chapter 20
    00:53:57.609                : en:Chapter 21
    00:57:30.364                : en:Chapter 22
    01:00:54.234                : en:Chapter 23
    01:03:22.716                : en:Chapter 24
    01:07:42.392                : en:Chapter 25
    01:10:21.259                : en:Chapter 26
    01:12:34.225                : en:Chapter 27
    01:15:35.322                : en:Chapter 28
    01:18:10.227                : en:Chapter 29
    01:22:34.032                : en:Chapter 30
    01:25:23.410                : en:Chapter 31
    01:31:28.358                : en:Chapter 32
    01:34:35.295                : en:Chapter 33
    01:36:10.556                : en:Chapter 34
    01:41:28.332                : en:Chapter 35

     

  • Peso: 7.03 GiB

Sinopsis

De repente, sin saber cuál es su origen, aunque todo hace sospechar que comienza con el viaje de una norteamericana a un casino de Hong Kong, un virus mortal comienza a propagarse por todo el mundo. En pocos días, la enfermedad empieza a diezmar a la población. El contagio se produce por mero contacto entre los seres humanos. Un thriller realista y sin efectos especiales sobre los efectos de una epidemia.

Ficha técnica

Video trailer de la película

Enlaces de descarga

Rip de Bluray

Descargar Contagio (2011) PLACEBO 1080p Latino




Aportes de DPeliculasHDmega la pass es:dpeliculashdmega.org Aportes de CinemaniaHD la pass es:cinemaniahdd.com

Películas relacionadas

  • La chica de rosa (1986) Full HD 1080p Latino

    La chica de rosa (1986) Full HD 1080p Latino

    1986
    La chica de rosa (1986) Full HD 1080p Latino

    0.0 1h 36m 1986

    Descargar La chica de rosa (1986) Full HD 1080p Latino. Andie Walsh (Molly Ringwald), una buena estudiante...

    Director: Pamela Alch

    Género: Comedia

    Actores: Molly Ringwald

  • Escucha tu destino (2007) 1080p Latino

    Escucha tu destino (2007) 1080p Latino

    2007
    Escucha tu destino (2007) 1080p Latino

    0.0 1h 53m 2007

    Descargar Escucha tu destino (2007) 1080p Latino. Un joven guitarrista irlandés (Jonathan Rhys Meyers)...

    Director: Kirsten Sheridan

    Género: Drama

    Actores: Zach Page

  • Escucha tu destino (2007) Full HD 1080p Latino

    Escucha tu destino (2007) Full HD 1080p Latino

    2007
    Escucha tu destino (2007) Full HD 1080p Latino

    0.0 1h 53m 2007

    Descargar Escucha tu destino (2007) Full HD 1080p Latino. Un joven guitarrista irlandés (Jonathan Rhys...

    Director: Kirsten Sheridan

    Género: Drama

    Actores: Zach Page

Contagio (2011) PLACEBO 1080p Latino pelicula full hd, Contagio (2011) PLACEBO 1080p Latino mega latino, Contagio (2011) PLACEBO 1080p Latino 4k latino, Contagio (2011) PLACEBO 1080p Latino pelicula completa, Contagio (2011) PLACEBO 1080p Latino descargar gratis, descargar Contagio (2011) PLACEBO 1080p Latino pelicula latino, Contagio (2011) PLACEBO 1080p Latino 1 link mega, Contagio (2011) PLACEBO 1080p Latino 1 link google drive, Contagio (2011) PLACEBO 1080p Latino hd 1080p latino.
Comentarios 2
  • JotaKingsman - 11 noviembre, 2020

    Enlaces caídos, podrían resubirlos? Gracias!

    • Dracarys - 12 noviembre, 2020

      usa ONE DRIVE o mega