¿Conoces a Joe Black? (1998) Full 1080p Latino

3.382 vistas
1 estrella2 estrellas3 estrellas4 estrellas5 estrellas (3 votos, promedio: 5,00 de 5)
Cargando…

Información de ¿Conoces a Joe Black? (1998) Full 1080p Latino

Datos de la película

  • Calidad: Full 1080p
  • Audio: Español Latino DTS 5.1 BLURAY - Ingles DTS 5.1 BLURAY
  • Subtitulos: Español Latino PGS - Ingles PGS
  • Resolución: 1920X1080
  • Formato: MKV
  • Codec: H.264
  • Encoder: Dpelis
  • Mediainfo: Clic para Mostrar Datos Ver
  • Format                                   : Matroska
    Format version                           : Version 4 / Version 2
    File size                                : 16.1 GiB
    Duration                                 : 3 h 0 min
    Overall bit rate                         : 12.8 Mb/s
    Movie name                               : dpeliculashdmega.org
    Encoded date                             : UTC 2017-11-13 20:41:33 / UTC 2017-11-13T13:26:17Z
    Writing application                      : mkvmerge v15.0.0 ('Duel with the Devil') 64-bit
    Writing library                          : libebml v1.3.5 + libmatroska v1.4.5 / Lavf57.7.2

    Video
    ID                                       : 1
    Format                                   : AVC
    Format/Info                              : Advanced Video Codec
    Format profile                           : High@L4.1
    Format settings                          : CABAC / 4 Ref Frames
    Format settings, CABAC                   : Yes
    Format settings, RefFrames               : 4 frames
    Codec ID                                 : V_MPEG4/ISO/AVC
    Duration                                 : 3 h 0 min
    Bit rate                                 : 10.2 Mb/s
    Width                                    : 1 920 pixels
    Height                                   : 1 080 pixels
    Display aspect ratio                     : 16:9
    Frame rate mode                          : Constant
    Frame rate                               : 23.976 (24000/1001) FPS
    Color space                              : YUV
    Chroma subsampling                       : 4:2:0
    Bit depth                                : 8 bits
    Scan type                                : Progressive
    Bits/(Pixel*Frame)                       : 0.206
    Stream size                              : 12.9 GiB (80%)
    Title                                    : ¿Conoces a Joe Black? (1998) Full 1080p Latino
    Writing library                          : x264 core 148 r2708 86b7198
    Encoding settings                        : cabac=1 / ref=4 / deblock=1:0:0 / analyse=0x3:0x133 / me=esa / subme=10 / psy=1 / psy_rd=1.00:0.00 / mixed_ref=1 / me_range=24 / chroma_me=1 / trellis=2 / 8x8dct=1 / cqm=0 / deadzone=21,11 / fast_pskip=1 / chroma_qp_offset=-2 / threads=34 / lookahead_threads=5 / sliced_threads=0 / nr=0 / decimate=1 / interlaced=0 / bluray_compat=0 / constrained_intra=0 / bframes=8 / b_pyramid=2 / b_adapt=2 / b_bias=0 / direct=3 / weightb=1 / open_gop=0 / weightp=2 / keyint=240 / keyint_min=24 / scenecut=40 / intra_refresh=0 / rc_lookahead=60 / rc=crf / mbtree=1 / crf=20.0 / qcomp=0.60 / qpmin=0 / qpmax=69 / qpstep=4 / vbv_maxrate=62500 / vbv_bufsize=78125 / crf_max=0.0 / nal_hrd=none / filler=0 / ip_ratio=1.40 / aq=1:1.00
    Language                                 : English
    Default                                  : Yes
    Forced                                   : No
    Color range                              : Limited
    Color primaries                          : BT.709
    Transfer characteristics                 : BT.709
    Matrix coefficients                      : BT.709
    Statistics Tags Issue                    : mkvmerge v15.0.0 ('Duel with the Devil') 64-bit 2017-11-13 20:41:33 / mkvmerge v15.0.0 ('Duel with the Devil') 64-bit 2017-11-13 20:41:33 / UTC 2017-11-13T13:26:17Z
    FromStats_BitRate                        : 10457510
    FromStats_Duration                       : 03:00:33.198000000
    FromStats_FrameCount                     : 259737
    FromStats_StreamSize                     : 14161034559

    Audio #1
    ID                                       : 2
    Format                                   : DTS
    Format/Info                              : Digital Theater Systems
    Mode                                     : 16
    Format settings, Endianness              : Big
    Codec ID                                 : A_DTS
    Duration                                 : 3 h 0 min
    Bit rate mode                            : Constant
    Bit rate                                 : 768 kb/s
    Channel(s)                               : 6 channels
    Channel positions                        : Front: L C R, Side: L R, LFE
    Sampling rate                            : 48.0 kHz
    Frame rate                               : 93.750 FPS (512 SPF)
    Bit depth                                : 24 bits
    Compression mode                         : Lossy
    Stream size                              : 992 MiB (6%)
    Title                                    : Latino-DTS
    Language                                 : Spanish
    Default                                  : Yes
    Forced                                   : No
    Statistics Tags Issue                    : mkvmerge v15.0.0 ('Duel with the Devil') 64-bit 2017-11-13 20:41:33 / mkvmerge v15.0.0 ('Duel with the Devil') 64-bit 2017-11-13 20:41:33 / UTC 2017-11-13T13:26:17Z
    FromStats_BitRate                        : 768000
    FromStats_Duration                       : 03:00:33.248000000
    FromStats_FrameCount                     : 1015617
    FromStats_StreamSize                     : 1039991808

    Audio #2
    ID                                       : 3
    Format                                   : DTS
    Format/Info                              : Digital Theater Systems
    Mode                                     : 16
    Format settings, Endianness              : Big
    Codec ID                                 : A_DTS
    Duration                                 : 3 h 0 min
    Bit rate mode                            : Constant
    Bit rate                                 : 1 509 kb/s
    Channel(s)                               : 6 channels
    Channel positions                        : Front: L C R, Side: L R, LFE
    Sampling rate                            : 48.0 kHz
    Frame rate                               : 93.750 FPS (512 SPF)
    Bit depth                                : 24 bits
    Compression mode                         : Lossy
    Stream size                              : 1.90 GiB (12%)
    Title                                    : Ingles-DTS
    Language                                 : English
    Default                                  : No
    Forced                                   : No
    Statistics Tags Issue                    : mkvmerge v15.0.0 ('Duel with the Devil') 64-bit 2017-11-13 20:41:33 / mkvmerge v15.0.0 ('Duel with the Devil') 64-bit 2017-11-13 20:41:33 / UTC 2017-11-13T13:26:17Z
    FromStats_BitRate                        : 1509000
    FromStats_Duration                       : 03:00:33.248000000
    FromStats_FrameCount                     : 1015617
    FromStats_StreamSize                     : 2043421404

    Text #1
    ID                                       : 4
    Format                                   : PGS
    Muxing mode                              : zlib
    Codec ID                                 : S_HDMV/PGS
    Codec ID/Info                            : Picture based subtitle format used on BDs/HD-DVDs
    Language                                 : English
    Default                                  : No
    Forced                                   : No
    Statistics Tags Issue                    : mkvmerge v15.0.0 ('Duel with the Devil') 64-bit 2017-11-13 20:41:33 / mkvmerge v15.0.0 ('Duel with the Devil') 64-bit 2017-11-13 20:41:33 / UTC 2017-11-13T13:26:17Z
    FromStats_BitRate                        : 34815
    FromStats_Duration                       : 02:53:09.504000000
    FromStats_FrameCount                     : 4020
    FromStats_StreamSize                     : 45214748

    Text #2
    ID                                       : 5
    Format                                   : PGS
    Muxing mode                              : zlib
    Codec ID                                 : S_HDMV/PGS
    Codec ID/Info                            : Picture based subtitle format used on BDs/HD-DVDs
    Language                                 : Spanish
    Default                                  : No
    Forced                                   : No
    Statistics Tags Issue                    : mkvmerge v15.0.0 ('Duel with the Devil') 64-bit 2017-11-13 20:41:33 / mkvmerge v15.0.0 ('Duel with the Devil') 64-bit 2017-11-13 20:41:33 / UTC 2017-11-13T13:26:17Z
    FromStats_BitRate                        : 32264
    FromStats_Duration                       : 02:52:10.821000000
    FromStats_FrameCount                     : 3855
    FromStats_StreamSize                     : 41664955

    Menu
    00:00:00.000                             : :Chapter 1
    00:02:43.830                             : :Chapter 2
    00:11:05.748                             : :Chapter 3
    00:22:13.165                             : :Chapter 4
    00:50:30.027                             : :Chapter 5
    01:01:10.000                             : :Chapter 6
    01:11:29.911                             : :Chapter 7
    01:25:20.991                             : :Chapter 8
    01:32:19.451                             : :Chapter 9
    01:37:13.286                             : :Chapter 10
    01:44:29.722                             : :Chapter 11
    02:05:46.914                             : :Chapter 12
    02:17:29.658                             : :Chapter 13
    02:21:50.335                             : :Chapter 14
    02:30:16.508                             : :Chapter 15
    02:36:23.499                             : :Chapter 16
    02:49:02.341                             : :Chapter 17
    02:54:26.456                             : :Chapter 18

  • Peso: 16.1 GiB

Sinopsis

William Parrish (Anthony Hopkins), es un poderoso y meticuloso magnate cuya vida se ve alterada por la llegada de un enigmático joven llamado Joe Black (Brad Pitt) que se enamora de su hija (Claire Forlani). Se trata, en realidad, de la personificación de la muerte con una misión que cumplir en dicho hogar…

Ficha técnica

Video trailer de la película

Enlaces de descarga

Rip de Bluray

Descargar ¿Conoces a Joe Black? (1998) Full 1080p Latino




Aportes de DPeliculasHDmega la pass es:dpeliculashdmega.org Aportes de CinemaniaHD la pass es:cinemaniahdd.com

Películas relacionadas

  • La balada de Buster Scruggs (2018) NF 1080p Latino

    2018
    La balada de Buster Scruggs (2018) NF 1080p Latino

    0.0 2h 12m 2018

    Los siempre singulares Joel y Ethan Cohen escriben y dirigen esta antología de seis historias del Salvaje...

    Director: Joel Coen

    Género: Comedia

    Actores: Zoe Kazan

  • La pequeña brujita (2018) AMZN 1080p Latino

    2018
    La pequeña brujita (2018) AMZN 1080p Latino

    5.0 1h 43m 2018

    Descargar La pequeña brujita (2018) AMZN 1080p Latino, Mega, Google Drive. La pequeña bruja sólo tiene...

    Director: Mike Schaerer

    Género: Comedia

    Actores: Verena Bosshard

  • Puzzle (2018) Web-DL 1080p Latino

    2018
    Puzzle (2018) Web-DL 1080p Latino

    0.0 1h 43m 2018

    Descargar Puzzle (2018) Web-DL 1080p Latino; Mega, Google Drive. Una mujer acude a Atlantic City para...

    Director: Marc Turtletaub

    Género: Drama

    Actores: Myrna Cabello

Comentarios 4
  • Sacha Bertagnoli - 18 diciembre, 2017

    Descargué Joe black, las 5 partes que pesan 4 gb por google drive. Me pide contraseña. Ya probé con las que figuran en la pagina y no sirve. AYUDA por favor

    • Dpelis2 - 18 diciembre, 2017

      la pass es dpeliculashdmega.org

  • iDeztrukxion - 13 noviembre, 2017

    disculpa de casualidad no tendrán la de los hijos de la calle?

    • Dpelis2 pelis2 - 16 noviembre, 2017

      La trataremos de conseguir. Saludos