×

¿Problemas para descargar con Mozilla, EDGE? Deshabilita la opción "Abrir vinculos en una pestaña nueva" tal como lo muestra ésta imagen.

Condor’s Nest (2023) AMZN WEB-DL 1080p Latino

172 vistas

Información de Condor’s Nest (2023) AMZN WEB-DL 1080p Latino

Datos de la película

  • Calidad: 1080p
  • Audio: Español Latino AC3 2.0 WEB-DL - Ingles AC3 5.1 WEB-DL
  • Subtitulos: Español Latino SRT- FORZADOS SRT
  • Resolución: 1920x1080
  • Formato: MKV
  • Codec: H.264
  • Encoder: cinemaniahdd
  • Mediainfo: Clic para Mostrar Datos Ver
  • Condor's Nest (2023) AMZN WEB-DL 1080p Latino [CNMNHDD].mkv
    Format                      : Matroska
    Format version              : Version 4
    File size                   : 6.56 GiB
    Duration                    : 1 h 42 min
    Overall bit rate            : 9 175 kb/s
    Movie name                  : Mision Condor (2023) [1080p] - CinemaniaHDD.Net
    Encoded date                : UTC 2023-12-10 16:16:18
    Writing application         : mkvmerge v56.1.0 ('My Friend') 64-bit
    Writing library             : libebml v1.4.2 + libmatroska v1.6.4

    Video
    ID                          : 1
    Format                      : AVC
    Format/Info                 : Advanced Video Codec
    Format profile              : High@L4
    Format settings             : CABAC / 4 Ref Frames
    Format settings, CABAC      : Yes
    Format settings, Reference  : 4 frames
    Codec ID                    : V_MPEG4/ISO/AVC
    Duration                    : 1 h 42 min
    Bit rate mode               : Constant
    Bit rate                    : 7 924 kb/s
    Nominal bit rate            : 10 000 kb/s
    Width                       : 1 920 pixels
    Height                      : 1 040 pixels
    Display aspect ratio        : 1.85:1
    Frame rate mode             : Constant
    Frame rate                  : 23.976 (24000/1001) FPS
    Color space                 : YUV
    Chroma subsampling          : 4:2:0
    Bit depth                   : 8 bits
    Scan type                   : Progressive
    Bits/(Pixel*Frame)          : 0.166
    Stream size                 : 5.67 GiB (86%)
    Title                       : CinemaniaHDD
    Default                     : Yes
    Forced                      : No
    Color range                 : Limited
    Color primaries             : BT.709
    Transfer characteristics    : BT.709
    Matrix coefficients         : BT.709

    Audio #1
    ID                          : 2
    Format                      : AC-3
    Format/Info                 : Audio Coding 3
    Commercial name             : Dolby Digital
    Codec ID                    : A_AC3
    Duration                    : 1 h 42 min
    Bit rate mode               : Constant
    Bit rate                    : 384 kb/s
    Channel(s)                  : 2 channels
    Channel layout              : L R
    Sampling rate               : 48.0 kHz
    Frame rate                  : 31.250 FPS (1536 SPF)
    Compression mode            : Lossy
    Stream size                 : 281 MiB (4%)
    Title                       : Español Latino [CinemaniaHDD]
    Language                    : Spanish
    Service kind                : Complete Main
    Default                     : Yes
    Forced                      : No

    Audio #2
    ID                          : 3
    Format                      : E-AC-3
    Format/Info                 : Enhanced AC-3
    Commercial name             : Dolby Digital Plus
    Codec ID                    : A_EAC3
    Duration                    : 1 h 42 min
    Bit rate mode               : Constant
    Bit rate                    : 224 kb/s
    Channel(s)                  : 2 channels
    Channel layout              : L R
    Sampling rate               : 48.0 kHz
    Frame rate                  : 31.250 FPS (1536 SPF)
    Compression mode            : Lossy
    Stream size                 : 164 MiB (2%)
    Title                       : Español latino / E-AC3 [CinemaniaHDD]
    Language                    : Spanish
    Service kind                : Complete Main
    Default                     : No
    Forced                      : No

    Audio #3
    ID                          : 4
    Format                      : E-AC-3
    Format/Info                 : Enhanced AC-3
    Commercial name             : Dolby Digital Plus
    Codec ID                    : A_EAC3
    Duration                    : 1 h 42 min
    Bit rate mode               : Constant
    Bit rate                    : 640 kb/s
    Channel(s)                  : 6 channels
    Channel layout              : L R C LFE Ls Rs
    Sampling rate               : 48.0 kHz
    Frame rate                  : 31.250 FPS (1536 SPF)
    Compression mode            : Lossy
    Stream size                 : 469 MiB (7%)
    Title                       : Inglés [CinemaniaHDD]
    Language                    : English
    Service kind                : Complete Main
    Default                     : No
    Forced                      : No

    Text #1
    ID                          : 5
    Format                      : UTF-8
    Codec ID                    : S_TEXT/UTF8
    Codec ID/Info               : UTF-8 Plain Text
    Duration                    : 39 min 58 s
    Bit rate                    : 0 b/s
    Count of elements           : 2
    Stream size                 : 18.0 Bytes (0%)
    Title                       : Forzados [CinemaniaHDD]
    Language                    : Spanish
    Default                     : Yes
    Forced                      : Yes

    Text #2
    ID                          : 6
    Format                      : UTF-8
    Codec ID                    : S_TEXT/UTF8
    Codec ID/Info               : UTF-8 Plain Text
    Duration                    : 1 h 36 min
    Bit rate                    : 50 b/s
    Count of elements           : 1195
    Stream size                 : 35.4 KiB (0%)
    Title                       : Español Latino [CinemaniaHDD]
    Language                    : Spanish
    Default                     : No
    Forced                      : No

     

  • Peso: 6.56 GiB

Sinopsis

El veterano de guerra estadounidense Will Spalding ha rastreado al sádico coronel nazi que ejecutó a su equipo de bombarderos durante la Segunda Guerra Mundial hasta un lugar remoto en América del Sur. Pero se encuentra con más de lo que esperaba cuando descubre un cuartel general nazi secreto conocido como el Nido del Cóndor.

Ficha técnica

Video trailer de la película

Enlaces de descarga

Rip de Bluray

Descargar Condor’s Nest (2023) AMZN WEB-DL 1080p Latino




Aportes de DPeliculasHDmega la pass es:dpeliculashdmega.org Aportes de CinemaniaHD la pass es:cinemaniahdd.com Aportes recientes:cinemaniahdd.net
Guardado en : Acción , Bélica

Películas relacionadas

  • Los infalibles (2024) AMZN WEB-DL 1080p Latino

    Los infalibles (2024) AMZN WEB-DL 1080p Latino

    2024
    Los infalibles (2024) AMZN WEB-DL 1080p Latino

    1h 39m 2024

    Cuando un grupo de ladrones provoca el caos en París y ridiculiza a la policía, el Ministro del Interior...

    Director: Frédéric Forestier

    Género: Acción

    Actores: Vincent Rottiers

  • El Ministerio de la Guerra (2024) HD 1080p Latino

    El Ministerio de la Guerra (2024) HD 1080p Latino

    2024
    El Ministerio de la Guerra (2024) HD 1080p Latino

    2h 0m 2024

    Descargar El Ministerio de la Guerra (2024) HD 1080p Latino.  El ejército británico recluta a un pequeño...

    Director: Guy Ritchie

    Género: Acción

    Actores: Til Schweiger

  • V for Vendetta (2005) REMUX 4K HDR Latino – CMHDD

    V for Vendetta (2005) REMUX 4K HDR Latino – CMHDD

    2006
    V for Vendetta (2005) REMUX 4K HDR Latino – CMHDD

    2h 12m 2006

    En un futuro no muy lejano, Gran Bretaña es un país totalitario dirigido con mano de hierro por un...

    Director: Tobias Asam

    Género: Acción

    Actores: Wolfgang Stegemann

descargar Condor’s Nest (2023) AMZN WEB-DL 1080p Latino 1080p 1080p gratis, Condor’s Nest (2023) AMZN WEB-DL 1080p Latino 1080p mega 1 link, Condor’s Nest (2023) AMZN WEB-DL 1080p Latino 1080p pelicula completa, descargar Condor’s Nest (2023) AMZN WEB-DL 1080p Latino 1080p gratis en mega.

Condor’s Nest (2023) AMZN WEB-DL 1080p Latino pelicula full hd, Condor’s Nest (2023) AMZN WEB-DL 1080p Latino mega latino, Condor’s Nest (2023) AMZN WEB-DL 1080p Latino 4k latino, Condor’s Nest (2023) AMZN WEB-DL 1080p Latino pelicula completa, Condor’s Nest (2023) AMZN WEB-DL 1080p Latino descargar gratis, descargar Condor’s Nest (2023) AMZN WEB-DL 1080p Latino pelicula latino, Condor’s Nest (2023) AMZN WEB-DL 1080p Latino 1 link mega, Condor’s Nest (2023) AMZN WEB-DL 1080p Latino 1 link google drive, Condor’s Nest (2023) AMZN WEB-DL 1080p Latino hd 1080p latino.
Comentarios 0