×

¿Problemas para descargar con Mozilla, EDGE? Deshabilita la opción "Abrir vinculos en una pestaña nueva" tal como lo muestra ésta imagen.

Con Amor Alaska (2019) WebDL 1080p Latino

176 vistas

Información de Con Amor Alaska (2019) WebDL 1080p Latino

Datos de la película

  • Calidad: WEBDL
  • Audio: Español Latino AC3 2.0 iTunes - Ingles AC3 5.1 iTunes
  • Subtitulos: Español Latino SRT- FORZADOS SRT
  • Resolución: 1920x1080p
  • Formato: MKV
  • Codec: H.264
  • Encoder: Melkor
  • Mediainfo: Clic para Mostrar Datos Ver
  • Con Amor Alaska (2019) WebDL 1080p Latino.mkv
    Format                      : Matroska
    Format version              : Version 4
    File size                   : 3.93 GiB
    Duration                    : 1 h 36 min
    Overall bit rate            : 5 854 kb/s
    Movie name                  : Love Alaska (2019) CinemaniaHDD.Net
    Encoded date                : UTC 2021-06-10 05:26:19
    Writing application         : mkvmerge v56.1.0 ('My Friend') 64-bit
    Writing library             : libebml v1.4.2 + libmatroska v1.6.4
    Attachments                 : CINEMANIAHD.png

    Video
    ID                          : 1
    Format                      : AVC
    Format/Info                 : Advanced Video Codec
    Format profile              : High@L4
    Format settings             : CABAC / 4 Ref Frames
    Format settings, CABAC      : Yes
    Format settings, Reference  : 4 frames
    Codec ID                    : V_MPEG4/ISO/AVC
    Duration                    : 1 h 36 min
    Bit rate                    : 5 211 kb/s
    Width                       : 1 920 pixels
    Height                      : 1 080 pixels
    Display aspect ratio        : 16:9
    Frame rate mode             : Constant
    Frame rate                  : 23.976 FPS
    Color space                 : YUV
    Chroma subsampling          : 4:2:0
    Bit depth                   : 8 bits
    Scan type                   : Progressive
    Bits/(Pixel*Frame)          : 0.105
    Stream size                 : 3.50 GiB (89%)
    Title                       : WEB HD1080p [CinemaniaHDD]
    Language                    : English
    Default                     : Yes
    Forced                      : No
    Color range                 : Limited
    Color primaries             : BT.709
    Transfer characteristics    : BT.709
    Matrix coefficients         : BT.709

    Audio #1
    ID                          : 2
    Format                      : AC-3
    Format/Info                 : Audio Coding 3
    Commercial name             : Dolby Digital
    Codec ID                    : A_AC3
    Duration                    : 1 h 36 min
    Bit rate mode               : Constant
    Bit rate                    : 256 kb/s
    Channel(s)                  : 2 channels
    Channel layout              : L R
    Sampling rate               : 48.0 kHz
    Frame rate                  : 31.250 FPS (1536 SPF)
    Compression mode            : Lossy
    Delay relative to video     : -42 ms
    Stream size                 : 176 MiB (4%)
    Title                       : Español Latino [CinemaniaHDD]
    Language                    : Spanish
    Service kind                : Complete Main
    Default                     : Yes
    Forced                      : No

    Audio #2
    ID                          : 3
    Format                      : AC-3
    Format/Info                 : Audio Coding 3
    Commercial name             : Dolby Digital
    Codec ID                    : A_AC3
    Duration                    : 1 h 36 min
    Bit rate mode               : Constant
    Bit rate                    : 384 kb/s
    Channel(s)                  : 6 channels
    Channel layout              : L R C LFE Ls Rs
    Sampling rate               : 48.0 kHz
    Frame rate                  : 31.250 FPS (1536 SPF)
    Compression mode            : Lossy
    Delay relative to video     : -42 ms
    Stream size                 : 264 MiB (7%)
    Title                       : Ingles [CinemaniaHDD]
    Language                    : English
    Service kind                : Complete Main
    Default                     : No
    Forced                      : No

    Text #1
    ID                          : 4
    Format                      : UTF-8
    Codec ID                    : S_TEXT/UTF8
    Codec ID/Info               : UTF-8 Plain Text
    Duration                    : 1 h 16 min
    Bit rate                    : 0 b/s
    Count of elements           : 12
    Stream size                 : 260 Bytes (0%)
    Title                       : Forzados-SRT [CinemaniaHDD]
    Language                    : Spanish
    Default                     : Yes
    Forced                      : No

    Text #2
    ID                          : 5
    Format                      : UTF-8
    Codec ID                    : S_TEXT/UTF8
    Codec ID/Info               : UTF-8 Plain Text
    Duration                    : 1 h 33 min
    Bit rate                    : 68 b/s
    Count of elements           : 1621
    Stream size                 : 46.5 KiB (0%)
    Title                       : Español-SRT [CinemaniaHDD]
    Language                    : Spanish
    Default                     : No
    Forced                      : No

    Menu
    00:00:00.000                : 1
    00:19:56.111                : 2
    00:48:24.650                : 3
    01:13:27.358                : 4
    01:32:45.181                : 5

  • Peso: 3.93 GiB

Sinopsis

Descargar Con Amor Alaska (2019) WebDL 1080p Latino. Tal vez no sea la más feliz de las circunstancias, pero dos amigos de la infancia, Maggie y Finn, regresaron a casa y se reunieron en Love, Alaska. Mientras reinician sus vidas y se enfrentan a su pasado, ¿tendrán estos dos una segunda oportunidad en el amor?

Ficha técnica

Video trailer de la película

Enlaces de descarga

Rip de Bluray

Descargar Con Amor Alaska (2019) WebDL 1080p Latino




Aportes de DPeliculasHDmega la pass es:dpeliculashdmega.org Aportes de CinemaniaHD la pass es:cinemaniahdd.com
Guardado en : Comedia , Película de TV , Romance

Películas relacionadas

descargar Con Amor Alaska (2019) WebDL 1080p Latino WEBDL 1080p gratis, Con Amor Alaska (2019) WebDL 1080p Latino WEBDL mega 1 link, Con Amor Alaska (2019) WebDL 1080p Latino WEBDL pelicula completa, descargar Con Amor Alaska (2019) WebDL 1080p Latino WEBDL gratis en mega.

Con Amor Alaska (2019) WebDL 1080p Latino pelicula full hd, Con Amor Alaska (2019) WebDL 1080p Latino mega latino, Con Amor Alaska (2019) WebDL 1080p Latino 4k latino, Con Amor Alaska (2019) WebDL 1080p Latino pelicula completa, Con Amor Alaska (2019) WebDL 1080p Latino descargar gratis, descargar Con Amor Alaska (2019) WebDL 1080p Latino pelicula latino, Con Amor Alaska (2019) WebDL 1080p Latino 1 link mega, Con Amor Alaska (2019) WebDL 1080p Latino 1 link google drive, Con Amor Alaska (2019) WebDL 1080p Latino hd 1080p latino.
Comentarios 0