×

¿Problemas para descargar con Mozilla, EDGE? Deshabilita la opción "Abrir vinculos en una pestaña nueva" tal como lo muestra ésta imagen.

Como si fuera la primera vez (2019) WEB-DL 1080p Latino

1.454 vistas

Información de Como si fuera la primera vez (2019) WEB-DL 1080p Latino

Datos de la película

  • Calidad: WEBDL
  • Audio: Español Latino AC3 2.0
  • Subtitulos: No
  • Resolución: 1920x1080
  • Formato: MKV
  • Codec: H.264
  • Encoder: cinemaniahdd
  • Mediainfo: Clic para Mostrar Datos Ver
  • Como si fuera la primera vez (2019) WEB-DL 1080p Latino.mkv
    Format                      : Matroska
    Format version              : Version 4
    File size                   : 3.22 GiB
    Duration                    : 1 h 48 min
    Overall bit rate mode       : Constant
    Overall bit rate            : 4 236 kb/s
    Movie name                  : Como si fuera la primera vez (2019) - CinemaniaHDD.Net
    Encoded date                : UTC 2019-11-16 19:07:38
    Writing application         : mkvmerge v38.0.0 ('The Silent Type') 64-bit
    Writing library             : libebml v1.3.9 + libmatroska v1.5.2

    Video
    ID                          : 1
    Format                      : AVC
    Format/Info                 : Advanced Video Codec
    Format profile              : High@L4
    Format settings             : CABAC / 2 Ref Frames
    Format settings, CABAC      : Yes
    Format settings, ReFrames   : 2 frames
    Format settings, GOP        : M=1, N=60
    Codec ID                    : V_MPEG4/ISO/AVC
    Duration                    : 1 h 48 min
    Bit rate mode               : Constant
    Bit rate                    : 4 000 kb/s
    Width                       : 1 920 pixels
    Height                      : 1 080 pixels
    Display aspect ratio        : 16:9
    Frame rate mode             : Constant
    Frame rate                  : 23.976 (24000/1001) FPS
    Color space                 : YUV
    Chroma subsampling          : 4:2:0
    Bit depth                   : 8 bits
    Scan type                   : Progressive
    Bits/(Pixel*Frame)          : 0.080
    Stream size                 : 3.03 GiB (94%)
    Title                       : CinemaniaHDD
    Default                     : Yes
    Forced                      : No
    Color range                 : Limited
    Color primaries             : BT.709
    Transfer characteristics    : BT.709
    Matrix coefficients         : BT.709

    Audio
    ID                          : 2
    Format                      : AC-3
    Format/Info                 : Audio Coding 3
    Commercial name             : Dolby Digital
    Codec ID                    : A_AC3
    Duration                    : 1 h 48 min
    Bit rate mode               : Constant
    Bit rate                    : 256 kb/s
    Channel(s)                  : 2 channels
    Channel layout              : L R
    Sampling rate               : 48.0 kHz
    Frame rate                  : 31.250 FPS (1536 SPF)
    Bit depth                   : 16 bits
    Compression mode            : Lossy
    Stream size                 : 199 MiB (6%)
    Title                       : Español latino [CinemaniaHDD]
    Language                    : Spanish
    Service kind                : Complete Main
    Default                     : Yes
    Forced                      : No

     

  • Peso: 3.22 GiB

Sinopsis

Diego (Vadhir Derbez) es un biólogo marino comprometido con su trabajo hasta que su carrera lo lleva a República Dominicana, donde conoce a Luci (Ximena Romo). A pesar de la clara atracción que hay entre ambos desde el principio, al día siguiente Luci no lo recuerda, porque años atrás tuvo un accidente automovilístico y desde entonces, cada noche su memoria se borra. Convencido de que es la mujer de sus sueños, Diego está dispuesto a hacer cualquier cosa para ganar el corazón de Luci, incluso si eso implica tener que encontrar cada día una nueva manera para conquistarla a ella y a su sobreprotectora familia. Versión mexicana de ’50 First Dates’, película de 2004 dirigida por Peter Segal con Adam Sandler y Drew Barrymore.

Ficha técnica

  • Titulo original: Como si fuera la primera vez
  • Fecha de lanzamiento: 30-08-2019 (Mexico)
  • Director: Mauricio T. Valle
  • Género: Comedia

Video trailer de la película

Enlaces de descarga

Rip de Bluray

Descargar Como si fuera la primera vez (2019) WEB-DL 1080p Latino




Aportes de DPeliculasHDmega la pass es:dpeliculashdmega.org Aportes de CinemaniaHD la pass es:cinemaniahdd.com
Guardado en : Comedia

Películas relacionadas

  • Hombre de familia (2000) REMUX 1080p Latino

    Hombre de familia (2000) REMUX 1080p Latino

    2000
    Hombre de familia (2000) REMUX 1080p Latino

    2h 1m 2000

    Descargar Hombre de familia (2000) REMUX 1080p Latino. Jack Campbell es un egocéntrico broker de Wall...

    Director: Robert Schroer

    Género: Comedia

    Actores: Wass Stevens

  • Te Amo Brother (2009) REMUX 1080p Latino

    Te Amo Brother (2009) REMUX 1080p Latino

    2009
    Te Amo Brother (2009) REMUX 1080p Latino

    1h 45m 2009

    Descargar Te Amo Brother (2009) REMUX 1080p Latino. Peter Klaven (Paul Rudd) es un joven que vive muy...

    Director: Scott Robertson

    Género: Comedia

    Actores: Vicki Davis

  • Asústame (2020) HD 1080p Latino

    Asústame (2020) HD 1080p Latino

    2020
    Asústame (2020) HD 1080p Latino

    1h 44m 2020

    Descargar Asústame (2020) HD 1080p Latino. Durante un corte de energía, dos extraños cuentan historias...

    Director: Josh Ruben

    Género: Comedia

    Actores: Rebecca Drysdale

  • Asústame (2020) PLACEBO Full HD 1080p Latino

    Asústame (2020) PLACEBO Full HD 1080p Latino

    2020
    Asústame (2020) PLACEBO Full HD 1080p Latino

    1h 44m 2020

    Descargar Asústame (2020) PLACEBO Full HD 1080p Latino. Durante un corte de energía, dos extraños...

    Director: Josh Ruben

    Género: Comedia

    Actores: Rebecca Drysdale

  • Asústame (2020) REMUX 1080p Latino

    Asústame (2020) REMUX 1080p Latino

    2020
    Asústame (2020) REMUX 1080p Latino

    1h 44m 2020

    Descargar Asústame (2020) REMUX 1080p Latino. Durante un corte de energía, dos extraños cuentan historias...

    Director: Josh Ruben

    Género: Comedia

    Actores: Rebecca Drysdale

descargar Como si fuera la primera vez (2019) WEB-DL 1080p Latino WEBDL 1080p gratis, Como si fuera la primera vez (2019) WEB-DL 1080p Latino WEBDL mega 1 link, Como si fuera la primera vez (2019) WEB-DL 1080p Latino WEBDL pelicula completa, descargar Como si fuera la primera vez (2019) WEB-DL 1080p Latino WEBDL gratis en mega.

Como si fuera la primera vez (2019) WEB-DL 1080p Latino pelicula full hd, Como si fuera la primera vez (2019) WEB-DL 1080p Latino mega latino, Como si fuera la primera vez (2019) WEB-DL 1080p Latino 4k latino, Como si fuera la primera vez (2019) WEB-DL 1080p Latino pelicula completa, Como si fuera la primera vez (2019) WEB-DL 1080p Latino descargar gratis, descargar Como si fuera la primera vez (2019) WEB-DL 1080p Latino pelicula latino, Como si fuera la primera vez (2019) WEB-DL 1080p Latino 1 link mega, Como si fuera la primera vez (2019) WEB-DL 1080p Latino 1 link google drive, Como si fuera la primera vez (2019) WEB-DL 1080p Latino hd 1080p latino.
Comentarios 0