×

¿Problemas para descargar con Mozilla, EDGE? Deshabilita la opción "Abrir vinculos en una pestaña nueva" tal como lo muestra ésta imagen.

Como si fuera la primera vez (2004) REMUX 1080p Latino – CMHDD

320 vistas

Información de Como si fuera la primera vez (2004) REMUX 1080p Latino – CMHDD

Datos de la película

  • Calidad: Full 1080p
  • Audio: Se especifica abajo de la Sinopsis
  • Subtitulos: Español Latino SRT- FORZADOS SRT
  • Resolución: 1920x1080p
  • Formato: MKV
  • Codec: H.264
  • Encoder: Dracarys
  • Mediainfo: Clic para Mostrar Datos Ver
  • Format                      : Matroska
    Format version              : Version 4
    File size                   : 13.5 GiB
    Duration                    : 1 h 39 min
    Overall bit rate mode       : Variable
    Overall bit rate            : 19.5 Mb/s
    Movie name                  : Como si fuera la primera vez (2004) REMUX 1080p Latino - CMHDD
    Encoded date                : UTC 2020-05-29 00:34:06
    Writing application         : mkvmerge v46.0.0 ('No Deeper Escape') 64-bit
    Writing library             : libebml v1.3.10 + libmatroska v1.5.2

    Video
    ID                          : 1
    Format                      : MPEG Video
    Format version              : Version 2
    Format profile              : Main@High
    Format settings             : BVOP
    Format settings, BVOP       : Yes
    Format settings, Matrix     : Default
    Codec ID                    : V_MPEG2
    Codec ID/Info               : MPEG 1 or 2 Video
    Duration                    : 1 h 39 min
    Bit rate mode               : Variable
    Bit rate                    : 17.0 Mb/s
    Maximum bit rate            : 30.0 Mb/s
    Width                       : 1 920 pixels
    Height                      : 1 080 pixels
    Display aspect ratio        : 16:9
    Frame rate mode             : Constant
    Frame rate                  : 23.976 (24000/1001) FPS
    Color space                 : YUV
    Chroma subsampling          : 4:2:0
    Bit depth                   : 8 bits
    Scan type                   : Progressive
    Compression mode            : Lossy
    Bits/(Pixel*Frame)          : 0.343
    Time code of first frame    : 00:59:59:00
    Time code source            : Group of pictures header
    GOP, Open/Closed            : Open
    GOP, Open/Closed of first f : Closed
    Stream size                 : 11.8 GiB (88%)
    Default                     : Yes
    Forced                      : No

    Audio #1
    ID                          : 2
    Format                      : AC-3
    Format/Info                 : Audio Coding 3
    Commercial name             : Dolby Digital
    Codec ID                    : A_AC3
    Duration                    : 1 h 39 min
    Bit rate mode               : Constant
    Bit rate                    : 640 kb/s
    Channel(s)                  : 6 channels
    Channel layout              : L R C LFE Ls Rs
    Sampling rate               : 48.0 kHz
    Frame rate                  : 31.250 FPS (1536 SPF)
    Compression mode            : Lossy
    Stream size                 : 453 MiB (3%)
    Language                    : Spanish
    Service kind                : Complete Main
    Default                     : Yes
    Forced                      : No

    Audio #2
    ID                          : 3
    Format                      : MLP FBA
    Format/Info                 : Meridian Lossless Packing FBA
    Commercial name             : Dolby TrueHD
    Codec ID                    : A_TRUEHD
    Duration                    : 1 h 39 min
    Bit rate mode               : Variable
    Bit rate                    : 1 690 kb/s
    Maximum bit rate            : 2 550 kb/s
    Channel(s)                  : 6 channels
    Channel layout              : L R C LFE Ls Rs
    Sampling rate               : 48.0 kHz
    Frame rate                  : 1 200.000 FPS (40 SPF)
    Compression mode            : Lossless
    Stream size                 : 1.17 GiB (9%)
    Language                    : English
    Default                     : No
    Forced                      : No

    Text #1
    ID                          : 4
    Format                      : UTF-8
    Codec ID                    : S_TEXT/UTF8
    Codec ID/Info               : UTF-8 Plain Text
    Duration                    : 1 h 27 min
    Bit rate                    : 0 b/s
    Count of elements           : 23
    Stream size                 : 604 Bytes (0%)
    Title                       : SRT-Forzados
    Language                    : Spanish
    Default                     : Yes
    Forced                      : Yes

    Text #2
    ID                          : 5
    Format                      : UTF-8
    Codec ID                    : S_TEXT/UTF8
    Codec ID/Info               : UTF-8 Plain Text
    Duration                    : 1 h 30 min
    Bit rate                    : 67 b/s
    Count of elements           : 1309
    Stream size                 : 44.7 KiB (0%)
    Title                       : SRT-Completos
    Language                    : Spanish
    Default                     : No
    Forced                      : No

    Text #3
    ID                          : 6
    Format                      : PGS
    Muxing mode                 : zlib
    Codec ID                    : S_HDMV/PGS
    Codec ID/Info               : Picture based subtitle format used on BDs/HD-DVDs
    Duration                    : 1 h 30 min
    Bit rate                    : 38.7 kb/s
    Count of elements           : 2620
    Stream size                 : 24.9 MiB (0%)
    Title                       : PGS-Completos
    Language                    : Spanish
    Default                     : No
    Forced                      : No

  • Peso: 13.5 GiB

Sinopsis

Henry Roth es un biólogo marino de Hawaii que se pasa la vida inventando excusas para no comprometerse con las numerosas chicas con las que sale. Sin embargo, cuando conoce a la chica de sus sueños, la encantadora Lucy Whitmore, surge un extraño problema en la relación: cuando Lucy se levanta por las mañanas no recuerda absolutamente nada de lo ocurrido el día anterior, de modo que Henry no tendrá más remedio que reconquistarla cada día.

 

Latino: AC3 5.1  –  Ingles: TrueHD 5.1

Ficha técnica

Video trailer de la película

Enlaces de descarga

Rip de Bluray

Descargar Como si fuera la primera vez (2004) REMUX 1080p Latino – CMHDD




Aportes de DPeliculasHDmega la pass es:dpeliculashdmega.org Aportes de CinemaniaHD la pass es:cinemaniahdd.com
Guardado en : Comedia , Remux , Romance

Películas relacionadas

descargar Como si fuera la primera vez (2004) REMUX 1080p Latino – CMHDD Full 1080p 1080p gratis, Como si fuera la primera vez (2004) REMUX 1080p Latino – CMHDD Full 1080p mega 1 link, Como si fuera la primera vez (2004) REMUX 1080p Latino – CMHDD Full 1080p pelicula completa, descargar Como si fuera la primera vez (2004) REMUX 1080p Latino – CMHDD Full 1080p gratis en mega.

Como si fuera la primera vez (2004) REMUX 1080p Latino – CMHDD pelicula full hd, Como si fuera la primera vez (2004) REMUX 1080p Latino – CMHDD mega latino, Como si fuera la primera vez (2004) REMUX 1080p Latino – CMHDD 4k latino, Como si fuera la primera vez (2004) REMUX 1080p Latino – CMHDD pelicula completa, Como si fuera la primera vez (2004) REMUX 1080p Latino – CMHDD descargar gratis, descargar Como si fuera la primera vez (2004) REMUX 1080p Latino – CMHDD pelicula latino, Como si fuera la primera vez (2004) REMUX 1080p Latino – CMHDD 1 link mega, Como si fuera la primera vez (2004) REMUX 1080p Latino – CMHDD 1 link google drive, Como si fuera la primera vez (2004) REMUX 1080p Latino – CMHDD hd 1080p latino.
Comentarios 0