×

¿Problemas para descargar con Mozilla, EDGE? Deshabilita la opción "Abrir vinculos en una pestaña nueva" tal como lo muestra ésta imagen.

Como si fuera la primera vez (2004) HD 1080p Latino – CMHDD

372 vistas

Información de Como si fuera la primera vez (2004) HD 1080p Latino – CMHDD

Datos de la película

  • Calidad: 1080p
  • Audio: Español Latino AC3 5.1 BLURAY - Ingles AC3 5.1 BLURAY
  • Subtitulos: Español Latino SRT- FORZADOS SRT
  • Resolución: 1920x800p
  • Formato: MKV
  • Codec: H.264
  • Encoder: Dracarys
  • Mediainfo: Clic para Mostrar Datos Ver
  • Format                      : Matroska
    Format version              : Version 4
    File size                   : 3.28 GiB
    Duration                    : 1 h 39 min
    Overall bit rate            : 4 744 kb/s
    Movie name                  : Como si fuera la primera vez (2004) HD 1080p Latino - CMHDD
    Encoded date                : UTC 2020-05-29 00:36:24
    Writing application         : mkvmerge v46.0.0 ('No Deeper Escape') 64-bit
    Writing library             : libebml v1.3.10 + libmatroska v1.5.2

    Video
    ID                          : 1
    Format                      : AVC
    Format/Info                 : Advanced Video Codec
    Format profile              : High@L4.1
    Format settings             : CABAC / 5 Ref Frames
    Format settings, CABAC      : Yes
    Format settings, Reference  : 5 frames
    Codec ID                    : V_MPEG4/ISO/AVC
    Duration                    : 1 h 39 min
    Bit rate                    : 3 500 kb/s
    Width                       : 1 920 pixels
    Height                      : 800 pixels
    Display aspect ratio        : 2.40:1
    Frame rate mode             : Constant
    Frame rate                  : 23.976 (24000/1001) FPS
    Color space                 : YUV
    Chroma subsampling          : 4:2:0
    Bit depth                   : 8 bits
    Scan type                   : Progressive
    Bits/(Pixel*Frame)          : 0.095
    Stream size                 : 2.40 GiB (73%)
    Writing library             : x264 core 157 r2935 545de2f
    Encoding settings           : cabac=1 / ref=5 / deblock=1:0:0 / analyse=0x3:0x113 / me=hex / subme=8 / psy=1 / psy_rd=1.00:0.00 / mixed_ref=1 / me_range=16 / chroma_me=1 / trellis=2 / 8x8dct=1 / cqm=0 / deadzone=21,11 / fast_pskip=1 / chroma_qp_offset=-2 / threads=24 / lookahead_threads=4 / sliced_threads=0 / nr=0 / decimate=1 / interlaced=0 / bluray_compat=0 / constrained_intra=0 / bframes=3 / b_pyramid=2 / b_adapt=1 / b_bias=0 / direct=3 / weightb=1 / open_gop=0 / weightp=2 / keyint=240 / keyint_min=24 / scenecut=40 / intra_refresh=0 / rc_lookahead=50 / rc=abr / mbtree=1 / bitrate=3500 / ratetol=1.0 / qcomp=0.60 / qpmin=0 / qpmax=69 / qpstep=4 / vbv_maxrate=62500 / vbv_bufsize=78125 / nal_hrd=none / filler=0 / ip_ratio=1.40 / aq=1:1.00
    Default                     : Yes
    Forced                      : No
    Color range                 : Limited
    Color primaries             : BT.709
    Transfer characteristics    : BT.709
    Matrix coefficients         : BT.709

    Audio #1
    ID                          : 2
    Format                      : AC-3
    Format/Info                 : Audio Coding 3
    Commercial name             : Dolby Digital
    Codec ID                    : A_AC3
    Duration                    : 1 h 39 min
    Bit rate mode               : Constant
    Bit rate                    : 640 kb/s
    Channel(s)                  : 6 channels
    Channel layout              : L R C LFE Ls Rs
    Sampling rate               : 48.0 kHz
    Frame rate                  : 31.250 FPS (1536 SPF)
    Compression mode            : Lossy
    Delay relative to video     : -5 ms
    Stream size                 : 453 MiB (13%)
    Language                    : Spanish
    Service kind                : Complete Main
    Default                     : Yes
    Forced                      : No

    Audio #2
    ID                          : 3
    Format                      : AC-3
    Format/Info                 : Audio Coding 3
    Commercial name             : Dolby Digital
    Codec ID                    : A_AC3
    Duration                    : 1 h 39 min
    Bit rate mode               : Constant
    Bit rate                    : 640 kb/s
    Channel(s)                  : 6 channels
    Channel layout              : L R C LFE Ls Rs
    Sampling rate               : 48.0 kHz
    Frame rate                  : 31.250 FPS (1536 SPF)
    Compression mode            : Lossy
    Delay relative to video     : -5 ms
    Stream size                 : 453 MiB (13%)
    Language                    : English
    Service kind                : Complete Main
    Default                     : No
    Forced                      : No

    Text #1
    ID                          : 4
    Format                      : UTF-8
    Codec ID                    : S_TEXT/UTF8
    Codec ID/Info               : UTF-8 Plain Text
    Duration                    : 1 h 27 min
    Bit rate                    : 0 b/s
    Count of elements           : 23
    Stream size                 : 604 Bytes (0%)
    Title                       : SRT-Forzados
    Language                    : Spanish
    Default                     : Yes
    Forced                      : Yes

    Text #2
    ID                          : 5
    Format                      : UTF-8
    Codec ID                    : S_TEXT/UTF8
    Codec ID/Info               : UTF-8 Plain Text
    Duration                    : 1 h 30 min
    Bit rate                    : 67 b/s
    Count of elements           : 1309
    Stream size                 : 44.7 KiB (0%)
    Title                       : SRT-Completos
    Language                    : Spanish
    Default                     : No
    Forced                      : No

    Menu
    00:00:00.000                : :Chapter 1
    00:05:26.701                : :Chapter 2
    00:11:36.946                : :Chapter 3
    00:21:21.280                : :Chapter 4
    00:24:40.104                : :Chapter 5
    00:31:33.892                : :Chapter 6
    00:34:23.061                : :Chapter 7
    00:40:57.080                : :Chapter 8
    00:46:19.318                : :Chapter 9
    00:51:15.656                : :Chapter 10
    00:56:09.533                : :Chapter 11
    01:03:39.816                : :Chapter 12
    01:08:50.501                : :Chapter 13
    01:13:59.560                : :Chapter 14
    01:26:55.627                : :Chapter 15
    01:28:35.936                : :Chapter 16

  • Peso: 3.28 GiB

Sinopsis

Henry Roth es un biólogo marino de Hawaii que se pasa la vida inventando excusas para no comprometerse con las numerosas chicas con las que sale. Sin embargo, cuando conoce a la chica de sus sueños, la encantadora Lucy Whitmore, surge un extraño problema en la relación: cuando Lucy se levanta por las mañanas no recuerda absolutamente nada de lo ocurrido el día anterior, de modo que Henry no tendrá más remedio que reconquistarla cada día.

Ficha técnica

Video trailer de la película

Enlaces de descarga

Rip de Bluray

Descargar Como si fuera la primera vez (2004) HD 1080p Latino – CMHDD




Aportes de DPeliculasHDmega la pass es:dpeliculashdmega.org Aportes de CinemaniaHD la pass es:cinemaniahdd.com
Guardado en : Comedia , HD 1080p , Romance

Películas relacionadas

  • El discurso del Rey (2010) 1080p Latino

    El discurso del Rey (2010) 1080p Latino

    2010
    El discurso del Rey (2010) 1080p Latino

    1h 58m 2010

    Descargar El discurso del Rey (2010) 1080p Latino. El duque de York se convirtió en rey de Gran Bretaña...

    Director: Tom Hooper

    Género: Drama

    Actores: Tony Earnshaw

  • Detective Knight: Redencion (2022) HD 1080p Latino

    Detective Knight: Redencion (2022) HD 1080p Latino

    2022
    Detective Knight: Redencion (2022) HD 1080p Latino

    1h 33m 2022

    Descargar Detective Knight: Redencion (2022) HD 1080p Latino. El detective James Knight se encuentra...

    Director: Edward Drake

    Género: Acción

    Actores: Paul Johansson

  • Detective Knight: Sin Piedad (2022) HD 1080p Latino

    Detective Knight: Sin Piedad (2022) HD 1080p Latino

    2022
    Detective Knight: Sin Piedad (2022) HD 1080p Latino

    1h 45m 2022

    Descargar Detective Knight: Sin Piedad (2022) HD 1080p Latino. James Knight es un veterano detective...

    Director: Edward Drake

    Género: Acción

    Actores: Sarah May Sommers

  • Un mundo extraño (2022) HD 1080p Latino

    Un mundo extraño (2022) HD 1080p Latino

    2022
    Un mundo extraño (2022) HD 1080p Latino

    1h 42m 2022

    Descargar Un mundo extraño (2022) HD 1080p Latino. Los Clades son una familia conocida en todo el mundo,...

    Director: Thai Bettistea

    Género: Animación

    Actores: Reed Buck

descargar Como si fuera la primera vez (2004) HD 1080p Latino – CMHDD 1080p 1080p gratis, Como si fuera la primera vez (2004) HD 1080p Latino – CMHDD 1080p mega 1 link, Como si fuera la primera vez (2004) HD 1080p Latino – CMHDD 1080p pelicula completa, descargar Como si fuera la primera vez (2004) HD 1080p Latino – CMHDD 1080p gratis en mega.

Como si fuera la primera vez (2004) HD 1080p Latino – CMHDD pelicula full hd, Como si fuera la primera vez (2004) HD 1080p Latino – CMHDD mega latino, Como si fuera la primera vez (2004) HD 1080p Latino – CMHDD 4k latino, Como si fuera la primera vez (2004) HD 1080p Latino – CMHDD pelicula completa, Como si fuera la primera vez (2004) HD 1080p Latino – CMHDD descargar gratis, descargar Como si fuera la primera vez (2004) HD 1080p Latino – CMHDD pelicula latino, Como si fuera la primera vez (2004) HD 1080p Latino – CMHDD 1 link mega, Como si fuera la primera vez (2004) HD 1080p Latino – CMHDD 1 link google drive, Como si fuera la primera vez (2004) HD 1080p Latino – CMHDD hd 1080p latino.
Comentarios 0