×

¿Problemas para descargar con Mozilla, EDGE? Deshabilita la opción "Abrir vinculos en una pestaña nueva" tal como lo muestra ésta imagen.

Como Perros Y Gatos 3: Patas Unidas (2020) REMUX 1080p Latino

232 vistas

Información de Como Perros Y Gatos 3: Patas Unidas (2020) REMUX 1080p Latino

Datos de la película

  • Calidad: Full 1080p
  • Audio: Español Latino AC3 5.1 BLURAY - Ingles DTS 5.1 BLURAY
  • Subtitulos: Español Latino PGS - Ingles PGS
  • Resolución: 1920x1080p
  • Formato: MKV
  • Codec: H.264
  • Encoder: Melkor
  • Mediainfo: Clic para Mostrar Datos Ver
  • Como Perros Y Gatos 3 Patas unidas (2020) REMUX 1080p Latino.mkv
    Format                      : Matroska
    Format version              : Version 4
    File size                   : 10.4 GiB
    Duration                    : 1 h 24 min
    Overall bit rate mode       : Variable
    Overall bit rate            : 17.8 Mb/s
    Movie name                  : Cats & Dogs 3 Paws Unite (2020) CinemaniaHDD.Net
    Encoded date                : UTC 2020-10-05 02:45:57
    Writing application         : mkvmerge v46.0.0 ('No Deeper Escape') 64-bit
    Writing library             : libebml v1.3.10 + libmatroska v1.5.2
    Attachments                 : CINEMANIAHD.png

    Video
    ID                          : 1
    ID in the original source m : 4113 (0x1011)
    Format                      : AVC
    Format/Info                 : Advanced Video Codec
    Format profile              : High@L4.1
    Format settings             : CABAC / 4 Ref Frames
    Format settings, CABAC      : Yes
    Format settings, Reference  : 4 frames
    Codec ID                    : V_MPEG4/ISO/AVC
    Duration                    : 1 h 24 min
    Bit rate mode               : Variable
    Bit rate                    : 14.8 Mb/s
    Maximum bit rate            : 38.0 Mb/s
    Width                       : 1 920 pixels
    Height                      : 1 080 pixels
    Display aspect ratio        : 16:9
    Frame rate mode             : Constant
    Frame rate                  : 23.976 (24000/1001) FPS
    Color space                 : YUV
    Chroma subsampling          : 4:2:0
    Bit depth                   : 8 bits
    Scan type                   : Progressive
    Bits/(Pixel*Frame)          : 0.299
    Stream size                 : 8.72 GiB (83%)
    Title                       : REMUX 1080p [CinemaniaHDD]
    Language                    : English
    Default                     : Yes
    Forced                      : No
    Original source medium      : Blu-ray

    Audio #1
    ID                          : 2
    ID in the original source m : 4354 (0x1102)
    Format                      : AC-3
    Format/Info                 : Audio Coding 3
    Commercial name             : Dolby Digital
    Codec ID                    : A_AC3
    Duration                    : 1 h 24 min
    Bit rate mode               : Constant
    Bit rate                    : 640 kb/s
    Channel(s)                  : 6 channels
    Channel layout              : L R C LFE Ls Rs
    Sampling rate               : 48.0 kHz
    Frame rate                  : 31.250 FPS (1536 SPF)
    Compression mode            : Lossy
    Stream size                 : 385 MiB (4%)
    Title                       : Español Latino [CinemaniaHDD]
    Language                    : Spanish
    Service kind                : Complete Main
    Default                     : Yes
    Forced                      : No
    Original source medium      : Blu-ray

    Audio #2
    ID                          : 3
    ID in the original source m : 4352 (0x1100)
    Format                      : DTS XLL
    Format/Info                 : Digital Theater Systems
    Commercial name             : DTS-HD Master Audio
    Codec ID                    : A_DTS
    Duration                    : 1 h 24 min
    Bit rate mode               : Variable
    Bit rate                    : 2 256 kb/s
    Channel(s)                  : 6 channels
    Channel layout              : C L R Ls Rs LFE
    Sampling rate               : 48.0 kHz
    Frame rate                  : 93.750 FPS (512 SPF)
    Bit depth                   : 16 bits
    Compression mode            : Lossless
    Stream size                 : 1.33 GiB (13%)
    Title                       : Ingles [CinemaniaHDD]
    Language                    : English
    Default                     : No
    Forced                      : No
    Original source medium      : Blu-ray

    Text #1
    ID                          : 4
    ID in the original source m : 4615 (0x1207)
    Format                      : PGS
    Muxing mode                 : zlib
    Codec ID                    : S_HDMV/PGS
    Codec ID/Info               : Picture based subtitle format used on BDs/HD-DVDs
    Duration                    : 1 h 16 min
    Bit rate                    : 948 b/s
    Count of elements           : 64
    Stream size                 : 531 KiB (0%)
    Title                       : Forzados-PGS [CinemaniaHDD]
    Language                    : Spanish
    Default                     : Yes
    Forced                      : No
    Original source medium      : Blu-ray

    Text #2
    ID                          : 5
    ID in the original source m : 4610 (0x1202)
    Format                      : PGS
    Muxing mode                 : zlib
    Codec ID                    : S_HDMV/PGS
    Codec ID/Info               : Picture based subtitle format used on BDs/HD-DVDs
    Duration                    : 1 h 23 min
    Bit rate                    : 37.9 kb/s
    Count of elements           : 2300
    Stream size                 : 22.7 MiB (0%)
    Title                       : Español-PGS [CinemaniaHDD]
    Language                    : Spanish
    Default                     : No
    Forced                      : No
    Original source medium      : Blu-ray

    Text #3
    ID                          : 6
    ID in the original source m : 4608 (0x1200)
    Format                      : PGS
    Muxing mode                 : zlib
    Codec ID                    : S_HDMV/PGS
    Codec ID/Info               : Picture based subtitle format used on BDs/HD-DVDs
    Duration                    : 1 h 23 min
    Bit rate                    : 46.7 kb/s
    Count of elements           : 2776
    Stream size                 : 27.8 MiB (0%)
    Title                       : Ingles-PGS [CinemaniaHDD]
    Language                    : English
    Default                     : No
    Forced                      : No
    Original source medium      : Blu-ray

    Text #4
    ID                          : 7
    Format                      : UTF-8
    Codec ID                    : S_TEXT/UTF8
    Codec ID/Info               : UTF-8 Plain Text
    Duration                    : 1 h 16 min
    Bit rate                    : 1 b/s
    Count of elements           : 32
    Stream size                 : 1 023 Bytes (0%)
    Title                       : Forzados-SRT [CinemaniaHDD]
    Language                    : Spanish
    Default                     : No
    Forced                      : No

    Text #5
    ID                          : 8
    Format                      : UTF-8
    Codec ID                    : S_TEXT/UTF8
    Codec ID/Info               : UTF-8 Plain Text
    Duration                    : 1 h 18 min
    Bit rate                    : 72 b/s
    Count of elements           : 1171
    Stream size                 : 42.0 KiB (0%)
    Title                       : Español-SRT [CinemaniaHDD]
    Language                    : Spanish
    Default                     : No
    Forced                      : No

    Menu
    00:00:00.000                : en:Chapter 01
    00:07:39.542                : en:Chapter 02
    00:14:19.608                : en:Chapter 03
    00:21:28.537                : en:Chapter 04
    00:30:17.357                : en:Chapter 05
    00:37:14.065                : en:Chapter 06
    00:44:49.978                : en:Chapter 07
    00:54:02.822                : en:Chapter 08
    01:01:09.499                : en:Chapter 09
    01:07:51.859                : en:Chapter 10
    01:13:19.978                : en:Chapter 11
    01:19:26.678                : en:Chapter 12

  • Peso: 10.4 GiB

Sinopsis

Descargar Como Perros Y Gatos 3: Patas Unidas (2020) REMUX 1080p Latino. A lo largo de una década, la Gran Tregua ha logrado que la hostilidad entre perros y gatos se haya detenido. Merced a esto, Gwen el Gato y Roger el Cánido son 2 agentes secretos que resguardan y salvan el planeta de forma enmascarada sin que los humanos lo descubran. Mas, esta paz se ve conminada en el momento en que un papagayo supervillano descubre la forma de manipular las frecuencias inalámbricas que solo los perros y los gatos son capaces de escuchar. Ahora, estos héroes van a deber eludir una posible guerra entre especies.

Ficha técnica

  • Titulo original: Cats & Dogs 3: Paws Unite
  • Fecha de lanzamiento: 02-10-2020 (United States of America)
  • Director: Sean McNamara
  • Género: Acción, Comedia, Remux

Video trailer de la película

Enlaces de descarga

Rip de Bluray

Descargar Como Perros Y Gatos 3: Patas Unidas (2020) REMUX 1080p Latino




Aportes de DPeliculasHDmega la pass es:dpeliculashdmega.org Aportes de CinemaniaHD la pass es:cinemaniahdd.com
Guardado en : Acción , Comedia , Remux

Películas relacionadas

  • El Cuartel Secreto (2022) WEB-DL 4K UHD HDR Latino

    El Cuartel Secreto (2022) WEB-DL 4K UHD HDR Latino

    2022
    El Cuartel Secreto (2022) WEB-DL 4K UHD HDR Latino

    1h 44m 2022

    Descargar El Cuartel Secreto (2022) WEB-DL 4K UHD HDR Latino. Mientras pasan el rato después de la escuela,...

    Director: Henry Joost

    Género: 4K HDR

    Actores: Zeb Slone

  • El Cuartel Secreto (2022) WEB-DL 1080p Latino

    El Cuartel Secreto (2022) WEB-DL 1080p Latino

    2022
    El Cuartel Secreto (2022) WEB-DL 1080p Latino

    1h 44m 2022

    Descargar El Cuartel Secreto (2022) WEB-DL 1080p Latino. Mientras pasan el rato después de la escuela,...

    Director: Henry Joost

    Género: Acción

    Actores: Zeb Slone

  • Men in Black (1997) REMUX 4K HDR Latino – CMHDD

    Men in Black (1997) REMUX 4K HDR Latino – CMHDD

    1997
    Men in Black (1997) REMUX 4K HDR Latino – CMHDD

    1h 34m 1997

    Durante muchos años los extraterrestres han vivido en la Tierra, mezclados con los humanos, sin que...

    Director: Tyrone S. Walker

    Género: Acción

    Actores: Willie C. Carpenter

  • Borrego: Sal Del Camino (2022) REMUX 1080p Latino

    Borrego: Sal Del Camino (2022) REMUX 1080p Latino

    2022
    Borrego: Sal Del Camino (2022) REMUX 1080p Latino

    1h 42m 2022

    Descargar Borrego: Sal Del Camino (2022) REMUX 1080p Latino. Una joven botánica se traslada a un pequeño...

    Director: Jesse Harris

    Género: Crimen

    Actores: Olivia Trujillo

descargar Como Perros Y Gatos 3: Patas Unidas (2020) REMUX 1080p Latino Full 1080p 1080p gratis, Como Perros Y Gatos 3: Patas Unidas (2020) REMUX 1080p Latino Full 1080p mega 1 link, Como Perros Y Gatos 3: Patas Unidas (2020) REMUX 1080p Latino Full 1080p pelicula completa, descargar Como Perros Y Gatos 3: Patas Unidas (2020) REMUX 1080p Latino Full 1080p gratis en mega.

Como Perros Y Gatos 3: Patas Unidas (2020) REMUX 1080p Latino pelicula full hd, Como Perros Y Gatos 3: Patas Unidas (2020) REMUX 1080p Latino mega latino, Como Perros Y Gatos 3: Patas Unidas (2020) REMUX 1080p Latino 4k latino, Como Perros Y Gatos 3: Patas Unidas (2020) REMUX 1080p Latino pelicula completa, Como Perros Y Gatos 3: Patas Unidas (2020) REMUX 1080p Latino descargar gratis, descargar Como Perros Y Gatos 3: Patas Unidas (2020) REMUX 1080p Latino pelicula latino, Como Perros Y Gatos 3: Patas Unidas (2020) REMUX 1080p Latino 1 link mega, Como Perros Y Gatos 3: Patas Unidas (2020) REMUX 1080p Latino 1 link google drive, Como Perros Y Gatos 3: Patas Unidas (2020) REMUX 1080p Latino hd 1080p latino.
Comentarios 0