Como Perros Y Gatos 3: Patas Unidas (2020) PLACEBO Full HD 1080p Latino

33 vistas
1 estrella2 estrellas3 estrellas4 estrellas5 estrellas (Ninguna valoración todavía)
Cargando...

Información de Como Perros Y Gatos 3: Patas Unidas (2020) PLACEBO Full HD 1080p Latino

Datos de la película

  • Calidad: Full 1080p
  • Audio: Español Latino AC3 5.1 BLURAY - Ingles DTS 5.1 BLURAY
  • Subtitulos: Español Latino PGS - Ingles PGS
  • Resolución: 1920x1080p
  • Formato: MKV
  • Codec: H.264
  • Encoder: Melkor
  • Mediainfo: Clic para Mostrar Datos Ver
  • Como Perros Y Gatos 3 Patas unidas (2020) PLACEBO Full HD 1080p Latino.mkv
    Format                      : Matroska
    Format version              : Version 4
    File size                   : 5.05 GiB
    Duration                    : 1 h 24 min
    Overall bit rate            : 8 586 kb/s
    Movie name                  : Cats & Dogs 3 Paws Unite (2020) CinemaniaHDD.Net
    Encoded date                : UTC 2020-10-05 05:36:05
    Writing application         : mkvmerge v46.0.0 ('No Deeper Escape') 64-bit
    Writing library             : libebml v1.3.10 + libmatroska v1.5.2
    Attachments                 : CINEMANIAHD.png

    Video
    ID                          : 1
    Format                      : AVC
    Format/Info                 : Advanced Video Codec
    Format profile              : High@L4.1
    Format settings             : CABAC / 4 Ref Frames
    Format settings, CABAC      : Yes
    Format settings, Reference  : 4 frames
    Codec ID                    : V_MPEG4/ISO/AVC
    Duration                    : 1 h 24 min
    Bit rate                    : 6 396 kb/s
    Width                       : 1 920 pixels
    Height                      : 1 080 pixels
    Display aspect ratio        : 16:9
    Frame rate mode             : Constant
    Frame rate                  : 23.976 (24000/1001) FPS
    Color space                 : YUV
    Chroma subsampling          : 4:2:0
    Bit depth                   : 8 bits
    Scan type                   : Progressive
    Bits/(Pixel*Frame)          : 0.129
    Stream size                 : 3.76 GiB (74%)
    Title                       : Full HD1080p [CinemaniaHDD]
    Writing library             : x264 core 157 r2935 545de2f
    Encoding settings           : cabac=1 / ref=4 / deblock=1:0:0 / analyse=0x3:0x133 / me=tesa / subme=11 / psy=1 / psy_rd=1.00:0.00 / mixed_ref=1 / me_range=24 / chroma_me=1 / trellis=2 / 8x8dct=1 / cqm=0 / deadzone=21,11 / fast_pskip=0 / chroma_qp_offset=-2 / threads=24 / lookahead_threads=6 / sliced_threads=0 / nr=0 / decimate=1 / interlaced=0 / bluray_compat=0 / constrained_intra=0 / bframes=16 / b_pyramid=2 / b_adapt=2 / b_bias=0 / direct=3 / weightb=1 / open_gop=0 / weightp=2 / keyint=240 / keyint_min=24 / scenecut=40 / intra_refresh=0 / rc_lookahead=60 / rc=crf / mbtree=1 / crf=18.0 / qcomp=0.60 / qpmin=0 / qpmax=69 / qpstep=4 / vbv_maxrate=62500 / vbv_bufsize=78125 / crf_max=0.0 / nal_hrd=none / filler=0 / ip_ratio=1.40 / aq=1:1.00
    Default                     : Yes
    Forced                      : Yes
    Color range                 : Limited
    Color primaries             : BT.709
    Transfer characteristics    : BT.709
    Matrix coefficients         : BT.709

    Audio #1
    ID                          : 2
    ID in the original source m : 4354 (0x1102)
    Format                      : AC-3
    Format/Info                 : Audio Coding 3
    Commercial name             : Dolby Digital
    Codec ID                    : A_AC3
    Duration                    : 1 h 24 min
    Bit rate mode               : Constant
    Bit rate                    : 640 kb/s
    Channel(s)                  : 6 channels
    Channel layout              : L R C LFE Ls Rs
    Sampling rate               : 48.0 kHz
    Frame rate                  : 31.250 FPS (1536 SPF)
    Compression mode            : Lossy
    Stream size                 : 385 MiB (7%)
    Title                       : Español Latino [CinemaniaHDD]
    Language                    : Spanish
    Service kind                : Complete Main
    Default                     : Yes
    Forced                      : Yes
    Original source medium      : Blu-ray

    Audio #2
    ID                          : 3
    Format                      : DTS
    Format/Info                 : Digital Theater Systems
    Codec ID                    : A_DTS
    Duration                    : 1 h 24 min
    Bit rate mode               : Constant
    Bit rate                    : 1 509 kb/s
    Channel(s)                  : 6 channels
    Channel layout              : C L R Ls Rs LFE
    Sampling rate               : 48.0 kHz
    Frame rate                  : 93.750 FPS (512 SPF)
    Bit depth                   : 24 bits
    Compression mode            : Lossy
    Stream size                 : 908 MiB (18%)
    Title                       : Ingles [CinemaniaHDD]
    Language                    : English
    Default                     : No
    Forced                      : No

    Text #1
    ID                          : 4
    ID in the original source m : 4615 (0x1207)
    Format                      : PGS
    Muxing mode                 : zlib
    Codec ID                    : S_HDMV/PGS
    Codec ID/Info               : Picture based subtitle format used on BDs/HD-DVDs
    Duration                    : 1 h 16 min
    Bit rate                    : 948 b/s
    Count of elements           : 64
    Stream size                 : 531 KiB (0%)
    Title                       : Forzados-PGS [CinemaniaHDD]
    Language                    : Spanish
    Default                     : Yes
    Forced                      : No
    Original source medium      : Blu-ray

    Text #2
    ID                          : 5
    ID in the original source m : 4610 (0x1202)
    Format                      : PGS
    Muxing mode                 : zlib
    Codec ID                    : S_HDMV/PGS
    Codec ID/Info               : Picture based subtitle format used on BDs/HD-DVDs
    Duration                    : 1 h 23 min
    Bit rate                    : 37.9 kb/s
    Count of elements           : 2300
    Stream size                 : 22.7 MiB (0%)
    Title                       : Español-PGS [CinemaniaHDD]
    Language                    : Spanish
    Default                     : No
    Forced                      : No
    Original source medium      : Blu-ray

    Text #3
    ID                          : 6
    ID in the original source m : 4608 (0x1200)
    Format                      : PGS
    Muxing mode                 : zlib
    Codec ID                    : S_HDMV/PGS
    Codec ID/Info               : Picture based subtitle format used on BDs/HD-DVDs
    Duration                    : 1 h 23 min
    Bit rate                    : 46.7 kb/s
    Count of elements           : 2776
    Stream size                 : 27.8 MiB (1%)
    Title                       : Ingles-PGS [CinemaniaHDD]
    Language                    : English
    Default                     : No
    Forced                      : No
    Original source medium      : Blu-ray

    Text #4
    ID                          : 7
    Format                      : UTF-8
    Codec ID                    : S_TEXT/UTF8
    Codec ID/Info               : UTF-8 Plain Text
    Duration                    : 1 h 16 min
    Bit rate                    : 1 b/s
    Count of elements           : 32
    Stream size                 : 1 023 Bytes (0%)
    Title                       : Forzados-SRT [CinemaniaHDD]
    Language                    : Spanish
    Default                     : No
    Forced                      : No

    Text #5
    ID                          : 8
    Format                      : UTF-8
    Codec ID                    : S_TEXT/UTF8
    Codec ID/Info               : UTF-8 Plain Text
    Duration                    : 1 h 18 min
    Bit rate                    : 72 b/s
    Count of elements           : 1171
    Stream size                 : 42.0 KiB (0%)
    Title                       : Español-SRT [CinemaniaHDD]
    Language                    : Spanish
    Default                     : No
    Forced                      : No

    Menu
    00:00:00.000                : en:Chapter 01
    00:07:39.542                : en:Chapter 02
    00:14:19.608                : en:Chapter 03
    00:21:28.537                : en:Chapter 04
    00:30:17.357                : en:Chapter 05
    00:37:14.065                : en:Chapter 06
    00:44:49.978                : en:Chapter 07
    00:54:02.822                : en:Chapter 08
    01:01:09.499                : en:Chapter 09
    01:07:51.859                : en:Chapter 10
    01:13:19.978                : en:Chapter 11
    01:19:26.678                : en:Chapter 12

  • Peso: 5.05 GiB

Sinopsis

Descargar Como Perros Y Gatos 3: Patas Unidas (2020) PLACEBO Full HD 1080p Latino. A lo largo de una década, la Gran Tregua ha logrado que la hostilidad entre perros y gatos se haya detenido. Merced a esto, Gwen el Gato y Roger el Cánido son 2 agentes secretos que resguardan y salvan el planeta de forma enmascarada sin que los humanos lo descubran. Mas, esta paz se ve conminada en el momento en que un papagayo supervillano descubre la forma de manipular las frecuencias inalámbricas que solo los perros y los gatos son capaces de escuchar. Ahora, estos héroes van a deber eludir una posible guerra entre especies.

Ficha técnica

Video trailer de la película

Enlaces de descarga

Rip de Bluray

Descargar Como Perros Y Gatos 3: Patas Unidas (2020) PLACEBO Full HD 1080p Latino




Aportes de DPeliculasHDmega la pass es:dpeliculashdmega.org Aportes de CinemaniaHD la pass es:cinemaniahdd.com

Películas relacionadas

  • Fuga De Pretoria (2020) PLACEBO Full HD 1080p Latino

    Fuga De Pretoria (2020) PLACEBO Full HD 1080p Latino

    2020
    Fuga De Pretoria (2020) PLACEBO Full HD 1080p Latino

    0.0 1h 42m 2020

    Descargar Fuga De Pretoria (2020) PLACEBO Full HD 1080p Latino. Sudáfrica, 1978. Tim Jenkin y Stephen...

    Director: Wayne Nassereddine

    Género: Drama

    Actores: Vuyo Loko

  • Bulletproof 2 (2020) WEB-DL 1080p Latino

    Bulletproof 2 (2020) WEB-DL 1080p Latino

    2020
    Bulletproof 2 (2020) WEB-DL 1080p Latino

    5.0 1h 38m 2020

    El agente especial Jack Carter asume de mala gana la identidad del criminal Archie Moses para derrotar...

    Director: Don Michael Paul

    Género: Acción

    Actores: Tuks Tad Lungu

  • The Bravest (2019) Full HD 1080p Latino

    The Bravest (2019) Full HD 1080p Latino

    2019
    The Bravest (2019) Full HD 1080p Latino

    5.0 1h 58m 2019

    Basado en eventos de la vida real, la película gira en torno a los esfuerzos heroicos de un equipo de...

    Director: Tony Chan

    Género: Drama

    Actores: 杜江

  • Good Boy (2020) WEB-DL 1080p Latino

    Good Boy (2020) WEB-DL 1080p Latino

    2020
    Good Boy (2020) WEB-DL 1080p Latino

    5.0 1h 29m 2020

    Cuando Maggie consigue un perro de apoyo emocional para ayudar a calmar parte de su ansiedad, descubre...

    Director: Tyler MacIntyre

    Género: Comedia

    Actores: Vincent Washington

  • Halloween 7 (1998) 1080p Full 1080p Latino

    Halloween 7 (1998) 1080p Full 1080p Latino

    1998
    Halloween 7 (1998) 1080p Full 1080p Latino

    5.0 1h 26m 1998

    Descargar Gratis Halloween: H20 - Veinte años despues (1998) Full Latino Mega. Veinte años después...

    Director: Steve Miner

    Género: FULL 1080p Plateadas

    Actores: Tom Kane

Comentarios 0