×

¿Problemas para descargar con Mozilla, EDGE? Deshabilita la opción "Abrir vinculos en una pestaña nueva" tal como lo muestra ésta imagen.

Como Perros Y Gatos (2001) REMUX 1080p Latino

187 vistas

Información de Como Perros Y Gatos (2001) REMUX 1080p Latino

Datos de la película

  • Calidad: Full 1080p
  • Audio: Español Latino AC3 5.1 BLURAY - Ingles DTS 5.1 BLURAY
  • Subtitulos: Español Latino PGS - Ingles PGS
  • Resolución: 1920x1080p
  • Formato: MKV
  • Codec: H.264
  • Encoder: Melkor
  • Mediainfo: Clic para Mostrar Datos Ver
  • Como Perros Y Gatos (2001) REMUX 1080p Latino.mkv
    Format                      : Matroska
    Format version              : Version 4
    File size                   : 16.0 GiB
    Duration                    : 1 h 27 min
    Overall bit rate mode       : Variable
    Overall bit rate            : 26.2 Mb/s
    Movie name                  : Cats & Dogs (2001) CinemaniaHDD.Net
    Encoded date                : UTC 2020-10-06 02:10:22
    Writing application         : mkvmerge v51.0.0 ('I Wish') 64-bit
    Writing library             : libebml v1.4.0 + libmatroska v1.6.2
    Attachments                 : CINEMANIAHD.png

    Video
    ID                          : 1
    ID in the original source m : 4113 (0x1011)
    Format                      : VC-1
    Format profile              : Advanced@L3
    Codec ID                    : V_MS/VFW/FOURCC / WVC1
    Codec ID/Hint               : Microsoft
    Duration                    : 1 h 27 min
    Bit rate                    : 21.2 Mb/s
    Width                       : 1 920 pixels
    Height                      : 1 080 pixels
    Display aspect ratio        : 16:9
    Frame rate mode             : Constant
    Frame rate                  : 23.976 (24000/1001) FPS
    Color space                 : YUV
    Chroma subsampling          : 4:2:0
    Bit depth                   : 8 bits
    Scan type                   : Progressive
    Compression mode            : Lossy
    Bits/(Pixel*Frame)          : 0.427
    Stream size                 : 12.9 GiB (81%)
    Title                       : REMUX 1080p [CinemaniaHDD]
    Default                     : Yes
    Forced                      : No
    Original source medium      : Blu-ray

    Audio #1
    ID                          : 2
    ID in the original source m : 4358 (0x1106)
    Format                      : AC-3
    Format/Info                 : Audio Coding 3
    Commercial name             : Dolby Digital
    Codec ID                    : A_AC3
    Duration                    : 1 h 27 min
    Bit rate mode               : Constant
    Bit rate                    : 640 kb/s
    Channel(s)                  : 6 channels
    Channel layout              : L R C LFE Ls Rs
    Sampling rate               : 48.0 kHz
    Frame rate                  : 31.250 FPS (1536 SPF)
    Compression mode            : Lossy
    Stream size                 : 399 MiB (2%)
    Title                       : Español Latino [CinemaniaHDD]
    Language                    : Spanish
    Service kind                : Complete Main
    Default                     : Yes
    Forced                      : No
    Original source medium      : Blu-ray

    Audio #2
    ID                          : 3
    ID in the original source m : 4352 (0x1100)
    Format                      : DTS XLL
    Format/Info                 : Digital Theater Systems
    Commercial name             : DTS-HD Master Audio
    Codec ID                    : A_DTS
    Duration                    : 1 h 27 min
    Bit rate mode               : Variable
    Bit rate                    : 4 327 kb/s
    Channel(s)                  : 6 channels
    Channel layout              : C L R Ls Rs LFE
    Sampling rate               : 48.0 kHz
    Frame rate                  : 93.750 FPS (512 SPF)
    Bit depth                   : 24 bits
    Compression mode            : Lossless
    Stream size                 : 2.64 GiB (16%)
    Title                       : Ingles [CinemaniaHDD]
    Language                    : English
    Default                     : No
    Forced                      : No
    Original source medium      : Blu-ray

    Text #1
    ID                          : 4
    ID in the original source m : 4614 (0x1206)
    Format                      : PGS
    Muxing mode                 : zlib
    Codec ID                    : S_HDMV/PGS
    Codec ID/Info               : Picture based subtitle format used on BDs/HD-DVDs
    Duration                    : 1 h 26 min
    Bit rate                    : 33.3 kb/s
    Count of elements           : 2214
    Stream size                 : 20.6 MiB (0%)
    Title                       : Español-PGS [CinemaniaHDD]
    Language                    : Spanish
    Default                     : No
    Forced                      : No
    Original source medium      : Blu-ray

    Text #2
    ID                          : 5
    ID in the original source m : 4608 (0x1200)
    Format                      : PGS
    Muxing mode                 : zlib
    Codec ID                    : S_HDMV/PGS
    Codec ID/Info               : Picture based subtitle format used on BDs/HD-DVDs
    Duration                    : 1 h 26 min
    Bit rate                    : 31.5 kb/s
    Count of elements           : 2164
    Stream size                 : 19.5 MiB (0%)
    Title                       : Ingles-PGS [CinemaniaHDD]
    Language                    : English
    Default                     : No
    Forced                      : No
    Original source medium      : Blu-ray

    Text #3
    ID                          : 6
    Format                      : UTF-8
    Codec ID                    : S_TEXT/UTF8
    Codec ID/Info               : UTF-8 Plain Text
    Duration                    : 1 h 3 min
    Bit rate                    : 0 b/s
    Count of elements           : 16
    Stream size                 : 352 Bytes (0%)
    Title                       : Forzados-SRT [CinemaniaHDD]
    Language                    : Spanish
    Default                     : Yes
    Forced                      : No

    Text #4
    ID                          : 7
    Format                      : UTF-8
    Codec ID                    : S_TEXT/UTF8
    Codec ID/Info               : UTF-8 Plain Text
    Duration                    : 1 h 21 min
    Bit rate                    : 60 b/s
    Count of elements           : 1102
    Stream size                 : 36.3 KiB (0%)
    Title                       : Español-SRT [CinemaniaHDD]
    Language                    : Spanish
    Default                     : No
    Forced                      : No

    Menu
    00:00:00.000                : en:Chapter 01
    00:04:33.731                : en:Chapter 02
    00:07:03.423                : en:Chapter 03
    00:11:03.454                : en:Chapter 04
    00:13:20.758                : en:Chapter 05
    00:17:50.110                : en:Chapter 06
    00:19:54.985                : en:Chapter 07
    00:24:04.276                : en:Chapter 08
    00:29:58.922                : en:Chapter 09
    00:31:55.371                : en:Chapter 10
    00:35:55.236                : en:Chapter 11
    00:37:41.676                : en:Chapter 12
    00:40:09.365                : en:Chapter 13
    00:43:39.116                : en:Chapter 14
    00:45:56.920                : en:Chapter 15
    00:49:43.730                : en:Chapter 16
    00:53:46.640                : en:Chapter 17
    00:56:52.826                : en:Chapter 18
    00:59:40.577                : en:Chapter 19
    01:03:11.078                : en:Chapter 20
    01:08:04.580                : en:Chapter 21
    01:12:05.696                : en:Chapter 22
    01:14:05.482                : en:Chapter 23
    01:17:18.342                : en:Chapter 24
    01:20:57.102                : en:Chapter 25
    01:21:58.038                : en:Chapter 26

  • Peso: 16.0 GiB

Sinopsis

Descargar Como Perros Y Gatos (2001) REMUX 1080p Latino. Mr. Tinkles es un gato persa ansioso de poder y decide encabezar un masivo movimiento felino contra el mejor amigo del hombre, el perro. Los agentes caninos de primera, que han protegido siempre a la raza humana, se encuentran en apuros. Uno de los principales perros de campo se ha retirado del servicio y se han visto obligados a utilizar a un agente novato, un cachorro de Beagle llamado Lou que tendrá que demostrar su valía en el combate contra Mr. Tinkles y su ejército de soldados bien entrenados.

Ficha técnica

Video trailer de la película

Enlaces de descarga

Rip de Bluray

Descargar Como Perros Y Gatos (2001) REMUX 1080p Latino




Aportes de DPeliculasHDmega la pass es:dpeliculashdmega.org Aportes de CinemaniaHD la pass es:cinemaniahdd.com
Guardado en : Comedia , Familia , Remux

Películas relacionadas

descargar Como Perros Y Gatos (2001) REMUX 1080p Latino Full 1080p 1080p gratis, Como Perros Y Gatos (2001) REMUX 1080p Latino Full 1080p mega 1 link, Como Perros Y Gatos (2001) REMUX 1080p Latino Full 1080p pelicula completa, descargar Como Perros Y Gatos (2001) REMUX 1080p Latino Full 1080p gratis en mega.

Como Perros Y Gatos (2001) REMUX 1080p Latino pelicula full hd, Como Perros Y Gatos (2001) REMUX 1080p Latino mega latino, Como Perros Y Gatos (2001) REMUX 1080p Latino 4k latino, Como Perros Y Gatos (2001) REMUX 1080p Latino pelicula completa, Como Perros Y Gatos (2001) REMUX 1080p Latino descargar gratis, descargar Como Perros Y Gatos (2001) REMUX 1080p Latino pelicula latino, Como Perros Y Gatos (2001) REMUX 1080p Latino 1 link mega, Como Perros Y Gatos (2001) REMUX 1080p Latino 1 link google drive, Como Perros Y Gatos (2001) REMUX 1080p Latino hd 1080p latino.
Comentarios 0