×

¿Problemas para descargar con Mozilla, EDGE? Deshabilita la opción "Abrir vinculos en una pestaña nueva" tal como lo muestra ésta imagen.

Como Perros Y Gatos (2001) HD 1080p Latino

273 vistas

Información de Como Perros Y Gatos (2001) HD 1080p Latino

Datos de la película

  • Calidad: 1080p
  • Audio: Español Latino AC3 5.1 BLURAY - Ingles AC3 5.1 BLURAY
  • Subtitulos: Español Latino SRT - Ingles SRT
  • Resolución: 1920x1080p
  • Formato: MKV
  • Codec: H.264
  • Encoder: Melkor
  • Mediainfo: Clic para Mostrar Datos Ver
  • Como Perros Y Gatos (2001) HD 1080p Latino.mkv
    Format                      : Matroska
    Format version              : Version 4
    File size                   : 3.10 GiB
    Duration                    : 1 h 27 min
    Overall bit rate            : 5 087 kb/s
    Movie name                  : Cats & Dogs (2001) CinemaniaHDD.Net
    Encoded date                : UTC 2020-10-06 02:26:53
    Writing application         : mkvmerge v51.0.0 ('I Wish') 64-bit
    Writing library             : libebml v1.4.0 + libmatroska v1.6.2
    Attachments                 : CINEMANIAHD.png

    Video
    ID                          : 1
    Format                      : AVC
    Format/Info                 : Advanced Video Codec
    Format profile              : High@L4.1
    Format settings             : CABAC / 4 Ref Frames
    Format settings, CABAC      : Yes
    Format settings, Reference  : 4 frames
    Codec ID                    : V_MPEG4/ISO/AVC
    Duration                    : 1 h 27 min
    Bit rate                    : 4 000 kb/s
    Width                       : 1 920 pixels
    Height                      : 1 080 pixels
    Display aspect ratio        : 16:9
    Frame rate mode             : Constant
    Frame rate                  : 23.976 (24000/1001) FPS
    Color space                 : YUV
    Chroma subsampling          : 4:2:0
    Bit depth                   : 8 bits
    Scan type                   : Progressive
    Bits/(Pixel*Frame)          : 0.080
    Stream size                 : 2.44 GiB (79%)
    Title                       : HD1080p [CinemaniaHDD]
    Writing library             : x264 core 157 r2935 545de2f
    Encoding settings           : cabac=1 / ref=4 / deblock=1:-2:-2 / analyse=0x3:0x133 / me=umh / subme=9 / psy=1 / psy_rd=1.00:0.25 / mixed_ref=1 / me_range=16 / chroma_me=1 / trellis=2 / 8x8dct=1 / cqm=0 / deadzone=6,6 / fast_pskip=1 / chroma_qp_offset=-4 / threads=24 / lookahead_threads=2 / sliced_threads=0 / nr=0 / decimate=0 / interlaced=0 / bluray_compat=0 / constrained_intra=0 / bframes=3 / b_pyramid=2 / b_adapt=2 / b_bias=0 / direct=3 / weightb=1 / open_gop=0 / weightp=2 / keyint=240 / keyint_min=24 / scenecut=40 / intra_refresh=0 / rc_lookahead=60 / rc=2pass / mbtree=1 / bitrate=4000 / ratetol=1.0 / qcomp=0.80 / qpmin=0 / qpmax=69 / qpstep=4 / cplxblur=20.0 / qblur=0.5 / vbv_maxrate=62500 / vbv_bufsize=78125 / nal_hrd=none / filler=0 / ip_ratio=1.10 / aq=1:0.50
    Default                     : Yes
    Forced                      : No
    Color range                 : Limited
    Color primaries             : BT.709
    Transfer characteristics    : BT.709
    Matrix coefficients         : BT.709

    Audio #1
    ID                          : 2
    ID in the original source m : 4358 (0x1106)
    Format                      : AC-3
    Format/Info                 : Audio Coding 3
    Commercial name             : Dolby Digital
    Codec ID                    : A_AC3
    Duration                    : 1 h 27 min
    Bit rate mode               : Constant
    Bit rate                    : 640 kb/s
    Channel(s)                  : 6 channels
    Channel layout              : L R C LFE Ls Rs
    Sampling rate               : 48.0 kHz
    Frame rate                  : 31.250 FPS (1536 SPF)
    Compression mode            : Lossy
    Delay relative to video     : -5 ms
    Stream size                 : 399 MiB (13%)
    Title                       : Español Latino [CinemaniaHDD]
    Language                    : Spanish
    Service kind                : Complete Main
    Default                     : Yes
    Forced                      : No
    Original source medium      : Blu-ray

    Audio #2
    ID                          : 3
    Format                      : AC-3
    Format/Info                 : Audio Coding 3
    Commercial name             : Dolby Digital
    Codec ID                    : A_AC3
    Duration                    : 1 h 27 min
    Bit rate mode               : Constant
    Bit rate                    : 448 kb/s
    Channel(s)                  : 6 channels
    Channel layout              : L R C LFE Ls Rs
    Sampling rate               : 48.0 kHz
    Frame rate                  : 31.250 FPS (1536 SPF)
    Compression mode            : Lossy
    Delay relative to video     : -5 ms
    Stream size                 : 280 MiB (9%)
    Title                       : Ingles [CinemaniaHDD]
    Language                    : English
    Service kind                : Complete Main
    Default                     : No
    Forced                      : No

    Text #1
    ID                          : 4
    Format                      : UTF-8
    Codec ID                    : S_TEXT/UTF8
    Codec ID/Info               : UTF-8 Plain Text
    Duration                    : 1 h 3 min
    Bit rate                    : 0 b/s
    Count of elements           : 16
    Stream size                 : 352 Bytes (0%)
    Title                       : Forzados-SRT [CinemaniaHDD]
    Language                    : Spanish
    Default                     : Yes
    Forced                      : No

    Text #2
    ID                          : 5
    Format                      : UTF-8
    Codec ID                    : S_TEXT/UTF8
    Codec ID/Info               : UTF-8 Plain Text
    Duration                    : 1 h 21 min
    Bit rate                    : 60 b/s
    Count of elements           : 1102
    Stream size                 : 36.3 KiB (0%)
    Title                       : Español-SRT [CinemaniaHDD]
    Language                    : Spanish
    Default                     : No
    Forced                      : No

    Text #3
    ID                          : 6
    Format                      : UTF-8
    Codec ID                    : S_TEXT/UTF8
    Codec ID/Info               : UTF-8 Plain Text
    Duration                    : 1 h 20 min
    Bit rate                    : 51 b/s
    Count of elements           : 1038
    Stream size                 : 30.8 KiB (0%)
    Title                       : Ingles-SRT [CinemaniaHDD]
    Language                    : English
    Default                     : No
    Forced                      : No

    Menu
    00:00:00.000                : en:Chapter 01
    00:04:33.731                : en:Chapter 02
    00:07:03.423                : en:Chapter 03
    00:11:03.454                : en:Chapter 04
    00:13:20.758                : en:Chapter 05
    00:17:50.110                : en:Chapter 06
    00:19:54.985                : en:Chapter 07
    00:24:04.276                : en:Chapter 08
    00:29:58.922                : en:Chapter 09
    00:31:55.371                : en:Chapter 10
    00:35:55.236                : en:Chapter 11
    00:37:41.676                : en:Chapter 12
    00:40:09.365                : en:Chapter 13
    00:43:39.116                : en:Chapter 14
    00:45:56.920                : en:Chapter 15
    00:49:43.730                : en:Chapter 16
    00:53:46.640                : en:Chapter 17
    00:56:52.826                : en:Chapter 18
    00:59:40.577                : en:Chapter 19
    01:03:11.078                : en:Chapter 20
    01:08:04.580                : en:Chapter 21
    01:12:05.696                : en:Chapter 22
    01:14:05.482                : en:Chapter 23
    01:17:18.342                : en:Chapter 24
    01:20:57.102                : en:Chapter 25
    01:21:58.038                : en:Chapter 26

  • Peso: 3.10 GiB

Sinopsis

Descargar Como Perros Y Gatos (2001) HD 1080p Latino. Mr. Tinkles es un gato persa ansioso de poder y decide encabezar un masivo movimiento felino contra el mejor amigo del hombre, el perro. Los agentes caninos de primera, que han protegido siempre a la raza humana, se encuentran en apuros. Uno de los principales perros de campo se ha retirado del servicio y se han visto obligados a utilizar a un agente novato, un cachorro de Beagle llamado Lou que tendrá que demostrar su valía en el combate contra Mr. Tinkles y su ejército de soldados bien entrenados.

Ficha técnica

Video trailer de la película

Enlaces de descarga

Rip de Bluray

Descargar Como Perros Y Gatos (2001) HD 1080p Latino




Aportes de DPeliculasHDmega la pass es:dpeliculashdmega.org Aportes de CinemaniaHD la pass es:cinemaniahdd.com
Guardado en : Comedia , Familia , HD 1080p

Películas relacionadas

  • Wire Room (2022) HD 1080p Latino

    Wire Room (2022) HD 1080p Latino

    2022
    Wire Room (2022) HD 1080p Latino

    1h 37m 2022

    Descargar Wire Room (2022) HD 1080p Latino. Mientras está de servicio en la sala de cables, un agente...

    Director: Matt Eskandari

    Género: Acción

    Actores: Texas Battle

  • Alarido (2022) HD 1080p Latino

    Alarido (2022) HD 1080p Latino

    2022
    Alarido (2022) HD 1080p Latino

    1h 29m 2022

    Descargar Alarido (2022) HD 1080p Latino. Una joven madre soltera es cautiva junto con sus dos hijos...

    Director: D.J. Caruso

    Género: HD 1080p

    Actores: Vincent Gallo

descargar Como Perros Y Gatos (2001) HD 1080p Latino 1080p 1080p gratis, Como Perros Y Gatos (2001) HD 1080p Latino 1080p mega 1 link, Como Perros Y Gatos (2001) HD 1080p Latino 1080p pelicula completa, descargar Como Perros Y Gatos (2001) HD 1080p Latino 1080p gratis en mega.

Como Perros Y Gatos (2001) HD 1080p Latino pelicula full hd, Como Perros Y Gatos (2001) HD 1080p Latino mega latino, Como Perros Y Gatos (2001) HD 1080p Latino 4k latino, Como Perros Y Gatos (2001) HD 1080p Latino pelicula completa, Como Perros Y Gatos (2001) HD 1080p Latino descargar gratis, descargar Como Perros Y Gatos (2001) HD 1080p Latino pelicula latino, Como Perros Y Gatos (2001) HD 1080p Latino 1 link mega, Como Perros Y Gatos (2001) HD 1080p Latino 1 link google drive, Como Perros Y Gatos (2001) HD 1080p Latino hd 1080p latino.
Comentarios 0