×

¿Problemas para descargar con Mozilla, EDGE? Deshabilita la opción "Abrir vinculos en una pestaña nueva" tal como lo muestra ésta imagen.

Como Perros y Gatos 2: La Venganza De Kitty Galore (2010) REMUX 1080p Latino

242 vistas

Información de Como Perros y Gatos 2: La Venganza De Kitty Galore (2010) REMUX 1080p Latino

Datos de la película

  • Calidad: Full 1080p
  • Audio: Español Latino AC3 5.1 BLURAY - Ingles DTS 5.1 BLURAY
  • Subtitulos: Español Latino PGS - Ingles PGS
  • Resolución: 1920x1080p
  • Formato: MKV
  • Codec: H.264
  • Encoder: Melkor
  • Mediainfo: Clic para Mostrar Datos Ver
  • Como Perros Y Gatos 2 Venganza De Kitty Galore (2010) REMUX 1080p Latinno.mkv
    Format                      : Matroska
    Format version              : Version 4
    File size                   : 16.6 GiB
    Duration                    : 1 h 22 min
    Overall bit rate mode       : Variable
    Overall bit rate            : 28.9 Mb/s
    Movie name                  : Cats & Dogs - The Revenge of Kitty Galore (2010) CinemaniaHDD.Net
    Encoded date                : UTC 2020-10-06 02:44:45
    Writing application         : mkvmerge v51.0.0 ('I Wish') 64-bit
    Writing library             : libebml v1.4.0 + libmatroska v1.6.2
    Attachments                 : CINEMANIAHD.png

    Video
    ID                          : 1
    Format                      : AVC
    Format/Info                 : Advanced Video Codec
    Format profile              : High@L4.1
    Format settings             : CABAC / 3 Ref Frames
    Format settings, CABAC      : Yes
    Format settings, Reference  : 3 frames
    Format settings, GOP        : M=2, N=24
    Codec ID                    : V_MPEG4/ISO/AVC
    Duration                    : 1 h 22 min
    Bit rate mode               : Variable
    Bit rate                    : 24.4 Mb/s
    Maximum bit rate            : 40.0 Mb/s
    Width                       : 1 920 pixels
    Height                      : 1 080 pixels
    Display aspect ratio        : 16:9
    Frame rate mode             : Constant
    Frame rate                  : 23.976 (24000/1001) FPS
    Standard                    : NTSC
    Color space                 : YUV
    Chroma subsampling          : 4:2:0
    Bit depth                   : 8 bits
    Scan type                   : Progressive
    Bits/(Pixel*Frame)          : 0.491
    Stream size                 : 14.0 GiB (84%)
    Title                       : REMUX 1080p [CinemaniaHDD]
    Default                     : Yes
    Forced                      : No
    Color range                 : Limited

    Audio #1
    ID                          : 2
    Format                      : AC-3
    Format/Info                 : Audio Coding 3
    Commercial name             : Dolby Digital
    Codec ID                    : A_AC3
    Duration                    : 1 h 22 min
    Bit rate mode               : Constant
    Bit rate                    : 640 kb/s
    Channel(s)                  : 6 channels
    Channel layout              : L R C LFE Ls Rs
    Sampling rate               : 48.0 kHz
    Frame rate                  : 31.250 FPS (1536 SPF)
    Compression mode            : Lossy
    Stream size                 : 377 MiB (2%)
    Title                       : Español Latino [CinemaniaHDD]
    Language                    : Spanish
    Service kind                : Complete Main
    Default                     : Yes
    Forced                      : No

    Audio #2
    ID                          : 3
    Format                      : DTS XLL
    Format/Info                 : Digital Theater Systems
    Commercial name             : DTS-HD Master Audio
    Codec ID                    : A_DTS
    Duration                    : 1 h 22 min
    Bit rate mode               : Variable
    Bit rate                    : 3 798 kb/s
    Channel(s)                  : 6 channels
    Channel layout              : C L R Ls Rs LFE
    Sampling rate               : 48.0 kHz
    Frame rate                  : 93.750 FPS (512 SPF)
    Bit depth                   : 24 bits
    Compression mode            : Lossless
    Stream size                 : 2.18 GiB (13%)
    Title                       : Ingles [CinemaniaHDD]
    Language                    : English
    Default                     : No
    Forced                      : No

    Text #1
    ID                          : 4
    Format                      : PGS
    Muxing mode                 : zlib
    Codec ID                    : S_HDMV/PGS
    Codec ID/Info               : Picture based subtitle format used on BDs/HD-DVDs
    Duration                    : 1 h 13 min
    Bit rate                    : 1 648 b/s
    Count of elements           : 90
    Stream size                 : 885 KiB (0%)
    Title                       : Forzados-PGS [CinemaniaHDD]
    Language                    : Spanish
    Default                     : Yes
    Forced                      : No

    Text #2
    ID                          : 5
    Format                      : PGS
    Muxing mode                 : zlib
    Codec ID                    : S_HDMV/PGS
    Codec ID/Info               : Picture based subtitle format used on BDs/HD-DVDs
    Duration                    : 1 h 21 min
    Bit rate                    : 52.5 kb/s
    Count of elements           : 2662
    Stream size                 : 30.7 MiB (0%)
    Title                       : Español-PGS [CinemaniaHDD]
    Language                    : Spanish
    Default                     : No
    Forced                      : No

    Text #3
    ID                          : 6
    Format                      : PGS
    Muxing mode                 : zlib
    Codec ID                    : S_HDMV/PGS
    Codec ID/Info               : Picture based subtitle format used on BDs/HD-DVDs
    Duration                    : 1 h 21 min
    Bit rate                    : 52.6 kb/s
    Count of elements           : 2588
    Stream size                 : 30.7 MiB (0%)
    Title                       : Ingles-PGS [CinemaniaHDD]
    Language                    : English
    Default                     : No
    Forced                      : No

    Text #4
    ID                          : 7
    Format                      : UTF-8
    Codec ID                    : S_TEXT/UTF8
    Codec ID/Info               : UTF-8 Plain Text
    Duration                    : 1 h 5 min
    Bit rate                    : 2 b/s
    Count of elements           : 44
    Stream size                 : 1.05 KiB (0%)
    Title                       : Forzados-SRT [CinemaniaHDD]
    Language                    : Spanish
    Default                     : No
    Forced                      : No

    Text #5
    ID                          : 8
    Format                      : UTF-8
    Codec ID                    : S_TEXT/UTF8
    Codec ID/Info               : UTF-8 Plain Text
    Duration                    : 1 h 21 min
    Bit rate                    : 81 b/s
    Count of elements           : 1331
    Stream size                 : 48.6 KiB (0%)
    Title                       : Español-SRT [CinemaniaHDD]
    Language                    : Spanish
    Default                     : No
    Forced                      : No

    Menu
    00:00:00.000                : :Chapter 01
    00:09:00.122                : :Chapter 02
    00:20:00.407                : :Chapter 03
    00:29:48.787                : :Chapter 04
    00:39:08.804                : :Chapter 05
    00:49:21.291                : :Chapter 06
    00:58:28.087                : :Chapter 07
    01:04:54.640                : :Chapter 08
    01:12:44.943                : :Chapter 09
    01:16:25.247                : :Chapter 10

  • Peso: 16.6 GiB

Sinopsis

Descargar Como Perros y Gatos 2: La Venganza De Kitty Galore (2010) REMUX 1080p Latino. En la viejísima batalla entre gatos y perros, un felino enloquecido se ha pasado bastante de la raya. Kitty Galore, una antigua agente de la organización de gatos espías MIAU, se ha vuelto pícara y ha ideado un plan diabólico no solo para derrotar a sus enemigos caninos, sino para subyugar a sus antiguos compañeros felinos y dominar el mundo. Frente esta amenaza sin precedentes, los gatos y los perros se ven obligados a unir sus fuerzas por primera vez en la historia en una insólita alianza para salvarse a sí mismos y a sus amos.

Ficha técnica

Video trailer de la película

Enlaces de descarga

Rip de Bluray

Descargar Como Perros y Gatos 2: La Venganza De Kitty Galore (2010) REMUX 1080p Latino




Aportes de DPeliculasHDmega la pass es:dpeliculashdmega.org Aportes de CinemaniaHD la pass es:cinemaniahdd.com
Guardado en : Acción , Comedia , Familia , Fantasía , Remux

Películas relacionadas

descargar Como Perros y Gatos 2: La Venganza De Kitty Galore (2010) REMUX 1080p Latino Full 1080p 1080p gratis, Como Perros y Gatos 2: La Venganza De Kitty Galore (2010) REMUX 1080p Latino Full 1080p mega 1 link, Como Perros y Gatos 2: La Venganza De Kitty Galore (2010) REMUX 1080p Latino Full 1080p pelicula completa, descargar Como Perros y Gatos 2: La Venganza De Kitty Galore (2010) REMUX 1080p Latino Full 1080p gratis en mega.

Como Perros y Gatos 2: La Venganza De Kitty Galore (2010) REMUX 1080p Latino pelicula full hd, Como Perros y Gatos 2: La Venganza De Kitty Galore (2010) REMUX 1080p Latino mega latino, Como Perros y Gatos 2: La Venganza De Kitty Galore (2010) REMUX 1080p Latino 4k latino, Como Perros y Gatos 2: La Venganza De Kitty Galore (2010) REMUX 1080p Latino pelicula completa, Como Perros y Gatos 2: La Venganza De Kitty Galore (2010) REMUX 1080p Latino descargar gratis, descargar Como Perros y Gatos 2: La Venganza De Kitty Galore (2010) REMUX 1080p Latino pelicula latino, Como Perros y Gatos 2: La Venganza De Kitty Galore (2010) REMUX 1080p Latino 1 link mega, Como Perros y Gatos 2: La Venganza De Kitty Galore (2010) REMUX 1080p Latino 1 link google drive, Como Perros y Gatos 2: La Venganza De Kitty Galore (2010) REMUX 1080p Latino hd 1080p latino.
Comentarios 0