×

¿Problemas para descargar con Mozilla, EDGE? Deshabilita la opción "Abrir vinculos en una pestaña nueva" tal como lo muestra ésta imagen.

Como Perros y Gatos 2: La Venganza De Kitty Galore (2010) PLACEBO Full HD 1080p Latino

396 vistas

Información de Como Perros y Gatos 2: La Venganza De Kitty Galore (2010) PLACEBO Full HD 1080p Latino

Datos de la película

  • Calidad: Full 1080p
  • Audio: Español Latino AC3 5.1 BLURAY - Ingles DTS 5.1 BLURAY
  • Subtitulos: Español Latino PGS - Ingles PGS
  • Resolución: 1920x1080p
  • Formato: MKV
  • Codec: H.264
  • Encoder: Melkor
  • Mediainfo: Clic para Mostrar Datos Ver
  • Como Perros Y Gatos 2 Venganza De Kitty Galore (2010) PLACEBO Full HD 1080p Latino.mkv
    Format                      : Matroska
    Format version              : Version 4
    File size                   : 7.55 GiB
    Duration                    : 1 h 22 min
    Overall bit rate            : 13.1 Mb/s
    Movie name                  : Cats & Dogs - The Revenge of Kitty Galore (2010) CinemaniaHDD.Net
    Encoded date                : UTC 2020-10-06 02:55:35
    Writing application         : mkvmerge v51.0.0 ('I Wish') 64-bit
    Writing library             : libebml v1.4.0 + libmatroska v1.6.2
    Attachments                 : CINEMANIAHD.png

    Video
    ID                          : 1
    Format                      : AVC
    Format/Info                 : Advanced Video Codec
    Format profile              : High@L4.1
    Format settings             : CABAC / 4 Ref Frames
    Format settings, CABAC      : Yes
    Format settings, Reference  : 4 frames
    Codec ID                    : V_MPEG4/ISO/AVC
    Duration                    : 1 h 22 min
    Bit rate                    : 10.9 Mb/s
    Width                       : 1 920 pixels
    Height                      : 1 080 pixels
    Display aspect ratio        : 16:9
    Frame rate mode             : Constant
    Frame rate                  : 23.976 (24000/1001) FPS
    Color space                 : YUV
    Chroma subsampling          : 4:2:0
    Bit depth                   : 8 bits
    Scan type                   : Progressive
    Bits/(Pixel*Frame)          : 0.220
    Stream size                 : 6.28 GiB (83%)
    Title                       : Full HD1080p [CinemaniaHDD]
    Writing library             : x264 core 157 r2935 545de2f
    Encoding settings           : cabac=1 / ref=4 / deblock=1:0:0 / analyse=0x3:0x133 / me=tesa / subme=11 / psy=1 / psy_rd=1.00:0.00 / mixed_ref=1 / me_range=24 / chroma_me=1 / trellis=2 / 8x8dct=1 / cqm=0 / deadzone=21,11 / fast_pskip=0 / chroma_qp_offset=-2 / threads=24 / lookahead_threads=6 / sliced_threads=0 / nr=0 / decimate=1 / interlaced=0 / bluray_compat=0 / constrained_intra=0 / bframes=16 / b_pyramid=2 / b_adapt=2 / b_bias=0 / direct=3 / weightb=1 / open_gop=0 / weightp=2 / keyint=240 / keyint_min=24 / scenecut=40 / intra_refresh=0 / rc_lookahead=60 / rc=crf / mbtree=1 / crf=19.0 / qcomp=0.60 / qpmin=0 / qpmax=69 / qpstep=4 / vbv_maxrate=62500 / vbv_bufsize=78125 / crf_max=0.0 / nal_hrd=none / filler=0 / ip_ratio=1.40 / aq=1:1.00
    Default                     : Yes
    Forced                      : Yes
    Color range                 : Limited
    Color primaries             : BT.709
    Transfer characteristics    : BT.709
    Matrix coefficients         : BT.709

    Audio #1
    ID                          : 2
    Format                      : AC-3
    Format/Info                 : Audio Coding 3
    Commercial name             : Dolby Digital
    Codec ID                    : A_AC3
    Duration                    : 1 h 22 min
    Bit rate mode               : Constant
    Bit rate                    : 640 kb/s
    Channel(s)                  : 6 channels
    Channel layout              : L R C LFE Ls Rs
    Sampling rate               : 48.0 kHz
    Frame rate                  : 31.250 FPS (1536 SPF)
    Compression mode            : Lossy
    Stream size                 : 377 MiB (5%)
    Title                       : Español Latino [CinemaniaHDD]
    Language                    : Spanish
    Service kind                : Complete Main
    Default                     : Yes
    Forced                      : No

    Audio #2
    ID                          : 3
    Format                      : DTS
    Format/Info                 : Digital Theater Systems
    Codec ID                    : A_DTS
    Duration                    : 1 h 22 min
    Bit rate mode               : Constant
    Bit rate                    : 1 509 kb/s
    Channel(s)                  : 6 channels
    Channel layout              : C L R Ls Rs LFE
    Sampling rate               : 48.0 kHz
    Frame rate                  : 93.750 FPS (512 SPF)
    Bit depth                   : 24 bits
    Compression mode            : Lossy
    Stream size                 : 889 MiB (12%)
    Title                       : Ingles [CinemaniaHDD]
    Language                    : English
    Default                     : No
    Forced                      : No

    Text #1
    ID                          : 4
    Format                      : PGS
    Muxing mode                 : zlib
    Codec ID                    : S_HDMV/PGS
    Codec ID/Info               : Picture based subtitle format used on BDs/HD-DVDs
    Duration                    : 1 h 13 min
    Bit rate                    : 1 648 b/s
    Count of elements           : 90
    Stream size                 : 885 KiB (0%)
    Title                       : Forzados-PGS [CinemaniaHDD]
    Language                    : Spanish
    Default                     : Yes
    Forced                      : No

    Text #2
    ID                          : 5
    Format                      : PGS
    Muxing mode                 : zlib
    Codec ID                    : S_HDMV/PGS
    Codec ID/Info               : Picture based subtitle format used on BDs/HD-DVDs
    Duration                    : 1 h 21 min
    Bit rate                    : 52.5 kb/s
    Count of elements           : 2662
    Stream size                 : 30.7 MiB (0%)
    Title                       : Español-PGS [CinemaniaHDD]
    Language                    : Spanish
    Default                     : No
    Forced                      : No

    Text #3
    ID                          : 6
    Format                      : PGS
    Muxing mode                 : zlib
    Codec ID                    : S_HDMV/PGS
    Codec ID/Info               : Picture based subtitle format used on BDs/HD-DVDs
    Duration                    : 1 h 21 min
    Bit rate                    : 52.6 kb/s
    Count of elements           : 2588
    Stream size                 : 30.7 MiB (0%)
    Title                       : Ingles-PGS [CinemaniaHDD]
    Language                    : English
    Default                     : No
    Forced                      : No

    Text #4
    ID                          : 7
    Format                      : UTF-8
    Codec ID                    : S_TEXT/UTF8
    Codec ID/Info               : UTF-8 Plain Text
    Duration                    : 1 h 5 min
    Bit rate                    : 2 b/s
    Count of elements           : 44
    Stream size                 : 1.05 KiB (0%)
    Title                       : Forzados-SRT [CinemaniaHDD]
    Language                    : Spanish
    Default                     : No
    Forced                      : No

    Text #5
    ID                          : 8
    Format                      : UTF-8
    Codec ID                    : S_TEXT/UTF8
    Codec ID/Info               : UTF-8 Plain Text
    Duration                    : 1 h 21 min
    Bit rate                    : 81 b/s
    Count of elements           : 1331
    Stream size                 : 48.6 KiB (0%)
    Title                       : Español-SRT [CinemaniaHDD]
    Language                    : Spanish
    Default                     : No
    Forced                      : No

    Menu
    00:00:00.000                : :Chapter 01
    00:09:00.122                : :Chapter 02
    00:20:00.407                : :Chapter 03
    00:29:48.787                : :Chapter 04
    00:39:08.804                : :Chapter 05
    00:49:21.291                : :Chapter 06
    00:58:28.087                : :Chapter 07
    01:04:54.640                : :Chapter 08
    01:12:44.943                : :Chapter 09
    01:16:25.247                : :Chapter 10

  • Peso: 7.55 GiB

Sinopsis

Descargar Como Perros y Gatos 2: La Venganza De Kitty Galore (2010) PLACEBO Full HD 1080p Latino. En la viejísima batalla entre gatos y perros, un felino enloquecido se ha pasado bastante de la raya. Kitty Galore, una antigua agente de la organización de gatos espías MIAU, se ha vuelto pícara y ha ideado un plan diabólico no solo para derrotar a sus enemigos caninos, sino para subyugar a sus antiguos compañeros felinos y dominar el mundo. Frente esta amenaza sin precedentes, los gatos y los perros se ven obligados a unir sus fuerzas por primera vez en la historia en una insólita alianza para salvarse a sí mismos y a sus amos.

Ficha técnica

Video trailer de la película

Enlaces de descarga

Rip de Bluray

Descargar Como Perros y Gatos 2: La Venganza De Kitty Galore (2010) PLACEBO Full HD 1080p Latino




Aportes de DPeliculasHDmega la pass es:dpeliculashdmega.org Aportes de CinemaniaHD la pass es:cinemaniahdd.com

Películas relacionadas

  • Mi amigo el dragón (2016) Full HD 1080p Latino

    Mi amigo el dragón (2016) Full HD 1080p Latino

    2016
    Mi amigo el dragón (2016) Full HD 1080p Latino

    1h 43m 2016

    Descargar Mi amigo el dragón (2016) Full HD 1080p Latino. Durante años el Sr. Meacham, un viejo tallador...

    Director: Joe Nolan

    Género: Aventura

    Actores: William J. Rawbone

  • Mi amigo el dragón (2016) REMUX 1080p Latino

    Mi amigo el dragón (2016) REMUX 1080p Latino

    2016
    Mi amigo el dragón (2016) REMUX 1080p Latino

    1h 43m 2016

    Descargar Mi amigo el dragón (2016) REMUX 1080p Latino. Durante años el Sr. Meacham, un viejo tallador...

    Director: Joe Nolan

    Género: Aventura

    Actores: William J. Rawbone

  • El discurso del Rey (2010) Full HD 1080p Latino

    El discurso del Rey (2010) Full HD 1080p Latino

    2010
    El discurso del Rey (2010) Full HD 1080p Latino

    1h 58m 2010

    Descargar El discurso del Rey (2010) Full HD 1080p Latino. El duque de York se convirtió en rey de Gran...

    Director: Tom Hooper

    Género: Drama

    Actores: Tony Earnshaw

  • Lucy (2014) REMUX 4K HDR Latino – CMHDD

    Lucy (2014) REMUX 4K HDR Latino – CMHDD

    2014
    Lucy (2014) REMUX 4K HDR Latino – CMHDD

    1h 30m 2014

    Lucy, una joven obligada a ejercer de mula de una nueva y potente droga, adquiere de repente enormes...

    Director: Luc Besson

    Género: Acción

    Actores: Wolfgang Pissors

descargar Como Perros y Gatos 2: La Venganza De Kitty Galore (2010) PLACEBO Full HD 1080p Latino Full 1080p 1080p gratis, Como Perros y Gatos 2: La Venganza De Kitty Galore (2010) PLACEBO Full HD 1080p Latino Full 1080p mega 1 link, Como Perros y Gatos 2: La Venganza De Kitty Galore (2010) PLACEBO Full HD 1080p Latino Full 1080p pelicula completa, descargar Como Perros y Gatos 2: La Venganza De Kitty Galore (2010) PLACEBO Full HD 1080p Latino Full 1080p gratis en mega.

Como Perros y Gatos 2: La Venganza De Kitty Galore (2010) PLACEBO Full HD 1080p Latino pelicula full hd, Como Perros y Gatos 2: La Venganza De Kitty Galore (2010) PLACEBO Full HD 1080p Latino mega latino, Como Perros y Gatos 2: La Venganza De Kitty Galore (2010) PLACEBO Full HD 1080p Latino 4k latino, Como Perros y Gatos 2: La Venganza De Kitty Galore (2010) PLACEBO Full HD 1080p Latino pelicula completa, Como Perros y Gatos 2: La Venganza De Kitty Galore (2010) PLACEBO Full HD 1080p Latino descargar gratis, descargar Como Perros y Gatos 2: La Venganza De Kitty Galore (2010) PLACEBO Full HD 1080p Latino pelicula latino, Como Perros y Gatos 2: La Venganza De Kitty Galore (2010) PLACEBO Full HD 1080p Latino 1 link mega, Como Perros y Gatos 2: La Venganza De Kitty Galore (2010) PLACEBO Full HD 1080p Latino 1 link google drive, Como Perros y Gatos 2: La Venganza De Kitty Galore (2010) PLACEBO Full HD 1080p Latino hd 1080p latino.
Comentarios 0