Cómo Escapar De Búfalo (2019) REMUX 1080p Latino

45 vistas
1 estrella2 estrellas3 estrellas4 estrellas5 estrellas (Ninguna valoración todavía)
Cargando...

Información de Cómo Escapar De Búfalo (2019) REMUX 1080p Latino

Datos de la película

  • Calidad: Full 1080p
  • Audio: Se especifica abajo de la Sinopsis
  • Subtitulos: Español Latino SRT- FORZADOS SRT
  • Resolución: 1920x1080p
  • Formato: MKV
  • Codec: H.264
  • Encoder: Melkor
  • Mediainfo: Clic para Mostrar Datos Ver
  • Como Escapar De Bufalo (2019) REMUX 1080p Latino.mkv
    Format                      : Matroska
    Format version              : Version 4
    File size                   : 22.5 GiB
    Duration                    : 1 h 35 min
    Overall bit rate mode       : Variable
    Overall bit rate            : 33.8 Mb/s
    Movie name                  : Buffaloed (2019) CinemaniaHDD.Net
    Encoded date                : UTC 2020-12-01 07:04:40
    Writing application         : mkvmerge v51.0.0 ('I Wish') 64-bit
    Writing library             : libebml v1.4.0 + libmatroska v1.6.2
    Attachments                 : CINEMANIAHD.png

    Video
    ID                          : 1
    Format                      : AVC
    Format/Info                 : Advanced Video Codec
    Format profile              : High@L4.1
    Format settings             : CABAC / 4 Ref Frames
    Format settings, CABAC      : Yes
    Format settings, Reference  : 4 frames
    Codec ID                    : V_MPEG4/ISO/AVC
    Duration                    : 1 h 35 min
    Bit rate mode               : Variable
    Bit rate                    : 29.6 Mb/s
    Maximum bit rate            : 35.0 Mb/s
    Width                       : 1 920 pixels
    Height                      : 1 080 pixels
    Display aspect ratio        : 16:9
    Frame rate mode             : Constant
    Frame rate                  : 23.976 (24000/1001) FPS
    Standard                    : NTSC
    Color space                 : YUV
    Chroma subsampling          : 4:2:0
    Bit depth                   : 8 bits
    Scan type                   : Progressive
    Bits/(Pixel*Frame)          : 0.595
    Stream size                 : 19.7 GiB (88%)
    Title                       : REMUX HD1080p [CinemaniaHDD]
    Default                     : Yes
    Forced                      : No
    Color range                 : Limited
    Color primaries             : BT.709
    Transfer characteristics    : BT.709
    Matrix coefficients         : BT.709

    Audio #1
    ID                          : 2
    Format                      : AC-3
    Format/Info                 : Audio Coding 3
    Commercial name             : Dolby Digital
    Codec ID                    : A_AC3
    Duration                    : 1 h 35 min
    Bit rate mode               : Constant
    Bit rate                    : 256 kb/s
    Channel(s)                  : 2 channels
    Channel layout              : L R
    Sampling rate               : 48.0 kHz
    Frame rate                  : 31.250 FPS (1536 SPF)
    Compression mode            : Lossy
    Stream size                 : 174 MiB (1%)
    Title                       : Español Latino [CinemaniaHDD]
    Language                    : Spanish
    Service kind                : Complete Main
    Default                     : Yes
    Forced                      : No

    Audio #2
    ID                          : 3
    Format                      : MLP FBA
    Format/Info                 : Meridian Lossless Packing FBA
    Commercial name             : Dolby TrueHD
    Codec ID                    : A_TRUEHD
    Duration                    : 1 h 35 min
    Bit rate mode               : Variable
    Bit rate                    : 3 217 kb/s
    Maximum bit rate            : 5 115 kb/s
    Channel(s)                  : 6 channels
    Channel layout              : L R C LFE Ls Rs
    Sampling rate               : 48.0 kHz
    Frame rate                  : 1 200.000 FPS (40 SPF)
    Compression mode            : Lossless
    Stream size                 : 2.14 GiB (10%)
    Title                       : Ingles THD [CinemaniaHDD]
    Language                    : English
    Default                     : No
    Forced                      : No

    Audio #3
    ID                          : 4
    Format                      : AC-3
    Format/Info                 : Audio Coding 3
    Commercial name             : Dolby Digital
    Codec ID                    : A_AC3
    Duration                    : 1 h 35 min
    Bit rate mode               : Constant
    Bit rate                    : 640 kb/s
    Channel(s)                  : 6 channels
    Channel layout              : L R C LFE Ls Rs
    Sampling rate               : 48.0 kHz
    Frame rate                  : 31.250 FPS (1536 SPF)
    Compression mode            : Lossy
    Stream size                 : 436 MiB (2%)
    Title                       : Ingles AC3 [CinemaniaHDD]
    Language                    : English
    Service kind                : Complete Main
    Default                     : No
    Forced                      : No

    Text #1
    ID                          : 5
    Format                      : UTF-8
    Codec ID                    : S_TEXT/UTF8
    Codec ID/Info               : UTF-8 Plain Text
    Duration                    : 2 s 499 ms
    Bit rate                    : 137 b/s
    Count of elements           : 1
    Stream size                 : 43.0 Bytes (0%)
    Title                       : Forzados-SRT [CinemaniaHDD]
    Language                    : Spanish
    Default                     : Yes
    Forced                      : No

    Text #2
    ID                          : 6
    Format                      : UTF-8
    Codec ID                    : S_TEXT/UTF8
    Codec ID/Info               : UTF-8 Plain Text
    Duration                    : 1 h 31 min
    Bit rate                    : 107 b/s
    Count of elements           : 2051
    Stream size                 : 72.2 KiB (0%)
    Title                       : Español-SRT [CinemaniaHDD]
    Language                    : Spanish
    Default                     : No
    Forced                      : No

    Text #3
    ID                          : 7
    Format                      : PGS
    Muxing mode                 : zlib
    Codec ID                    : S_HDMV/PGS
    Codec ID/Info               : Picture based subtitle format used on BDs/HD-DVDs
    Duration                    : 1 h 35 min
    Bit rate                    : 49.1 kb/s
    Count of elements           : 4772
    Stream size                 : 33.4 MiB (0%)
    Title                       : Ingles-PGS [CinemaniaHDD]
    Language                    : Spanish
    Default                     : No
    Forced                      : No

    Menu
    00:00:00.000                : en:Heart
    00:07:00.416                : en:You Got In
    00:13:48.490                : en:Convicted Felon
    00:20:13.542                : en:New Plan
    00:28:22.405                : en:Debt Never Dies
    00:34:50.376                : en:Thinking Bigger
    00:41:27.314                : en:Talk Business
    00:51:18.822                : en:Risk
    01:00:06.224                : en:War
    01:13:23.479                : en:This Ends
    01:25:58.441                : en:Evidence
    01:33:03.366                : en:End Credits

  • Peso: 22.5 GiB

Sinopsis

Descargar Cómo Escapar De Búfalo (2019) REMUX 1080p Latino. Peg Dahl (Zoey Deutch) es una joven que sueña con conseguir el dinero suficiente para dejas atrás su vida en una de las zonas más pobres de su ciudad. Inteligente y mordaz, pasa los días esperando a que llegue la carta de aceptación de la Universidad a la que espera acudir. Sin embargo, cuando por fin llega la aceptación, Peg se da cuenta de que le será imposible permitirse el coste de sus estudios. Es entonces cuando decide comenzar a buscar vías de financiación que la llevarán a pasar por prisión y a conocer a un recolector de deudas que cambiará su vida para siempre.

Español Latino AC3 2.0 WebDL – Ingles TrueHD & AC3 5.1 Bluray

Ficha técnica

  • Titulo original: Buffaloed
  • Fecha de lanzamiento: 14-02-2020 (United States of America)
  • Director: Tanya Wexler
  • Género: Comedia, Drama, Remux, Romance
  • Puntuación: 0.0 0 votos
  • Duración:
    1h 35m

Video trailer de la película

Enlaces de descarga

Rip de Bluray

Descargar Cómo Escapar De Búfalo (2019) REMUX 1080p Latino




Aportes de DPeliculasHDmega la pass es:dpeliculashdmega.org Aportes de CinemaniaHD la pass es:cinemaniahdd.com
Guardado en : Comedia , Drama , Remux , Romance

Películas relacionadas

  • Come Play (2020) REMUX 1080p Latino

    Come Play (2020) REMUX 1080p Latino

    2020
    Come Play (2020) REMUX 1080p Latino

    0.0 1h 36m 2020

    Descargar Come Play (2020) REMUX 1080p Latino. Un niño problemático y su familia se convierten en el...

    Director: Jacob Chase

    Género: Terror

    Actores: Winslow Fegley

  • Agentes Vanguard (2020) REMUX 1080p Latino

    Agentes Vanguard (2020) REMUX 1080p Latino

    2020
    Agentes Vanguard (2020) REMUX 1080p Latino

    5.0 1h 47m 2020

    Descargar Agentes Vanguard (2020) REMUX 1080p Latino. La compañía de seguridad encubierta Vanguard...

    Director: Stanley Tong

    Género: Acción

    Actores: Zhu Zhengting

  • Beforeigners (2020) Temporada 1 HBOGO WEB-DL 1080p

    Beforeigners (2020) Temporada 1 HBOGO WEB-DL 1080p

    2019
    Beforeigners (2020) Temporada 1 HBOGO WEB-DL 1080p

    5.0 0h 50m 2019

    Gente de la Edad de Piedra, la Era Vikinga y finales del siglo XIX comienzan a aparecer inexplicablemente...

    Director: Eilif Skodvin

    Género: Drama

    Actores: Stig R. Amdam

  • Escuela de Miedo (2020) REMUX 1080p Latino

    Escuela de Miedo (2020) REMUX 1080p Latino

    2020
    Escuela de Miedo (2020) REMUX 1080p Latino

    0.0 1h 20m 2020

    Descargar Escuela de Miedo (2020) REMUX 1080p Latino. Un inteligente estudiante de secundaria de 15 años...

    Director: Leopoldo Aguilar

    Género: Animación

    Actores: Ruby Rose

Comentarios 0