×

¿Problemas para descargar con Mozilla, EDGE? Deshabilita la opción "Abrir vinculos en una pestaña nueva" tal como lo muestra ésta imagen.

Cómo Escapar De Búfalo (2019) HD 1080p Latino

282 vistas

Información de Cómo Escapar De Búfalo (2019) HD 1080p Latino

Datos de la película

  • Calidad: 1080p
  • Audio: Español Latino AC3 2.0 WEB-DL - Ingles AC3 5.1 BLURAY
  • Subtitulos: Español Latino SRT- FORZADOS SRT
  • Resolución: 1920x804p
  • Formato: MKV
  • Codec: H.264
  • Encoder: Melkor
  • Mediainfo: Clic para Mostrar Datos Ver
  • Como Escapar De Bufalo (2019) HD 1080p Latino.mkv
    Format                      : Matroska
    Format version              : Version 4
    File size                   : 2.80 GiB
    Duration                    : 1 h 35 min
    Overall bit rate            : 4 207 kb/s
    Movie name                  : Buffaloed (2019) CinemaniaHDD.Net
    Encoded date                : UTC 2020-12-01 07:16:42
    Writing application         : mkvmerge v51.0.0 ('I Wish') 64-bit
    Writing library             : libebml v1.4.0 + libmatroska v1.6.2
    Attachments                 : CINEMANIAHD.png

    Video
    ID                          : 1
    Format                      : AVC
    Format/Info                 : Advanced Video Codec
    Format profile              : High@L4.1
    Format settings             : CABAC / 5 Ref Frames
    Format settings, CABAC      : Yes
    Format settings, Reference  : 5 frames
    Codec ID                    : V_MPEG4/ISO/AVC
    Duration                    : 1 h 35 min
    Bit rate                    : 3 500 kb/s
    Width                       : 1 920 pixels
    Height                      : 804 pixels
    Display aspect ratio        : 2.40:1
    Frame rate mode             : Constant
    Frame rate                  : 23.976 (24000/1001) FPS
    Color space                 : YUV
    Chroma subsampling          : 4:2:0
    Bit depth                   : 8 bits
    Scan type                   : Progressive
    Bits/(Pixel*Frame)          : 0.095
    Stream size                 : 2.33 GiB (83%)
    Title                       : HD1080p [CinemaniaHDD]
    Writing library             : x264 core 157 r2935 545de2f
    Encoding settings           : cabac=1 / ref=5 / deblock=1:-1:-1 / analyse=0x3:0x133 / me=umh / subme=9 / psy=1 / psy_rd=1.00:0.15 / mixed_ref=1 / me_range=16 / chroma_me=1 / trellis=2 / 8x8dct=1 / cqm=0 / deadzone=21,11 / fast_pskip=1 / chroma_qp_offset=-3 / threads=24 / lookahead_threads=2 / sliced_threads=0 / nr=0 / decimate=1 / interlaced=0 / bluray_compat=0 / constrained_intra=0 / bframes=3 / b_pyramid=2 / b_adapt=2 / b_bias=0 / direct=3 / weightb=1 / open_gop=0 / weightp=2 / keyint=240 / keyint_min=24 / scenecut=40 / intra_refresh=0 / rc_lookahead=60 / rc=2pass / mbtree=1 / bitrate=3500 / ratetol=1.0 / qcomp=0.60 / qpmin=0 / qpmax=69 / qpstep=4 / cplxblur=20.0 / qblur=0.5 / vbv_maxrate=62500 / vbv_bufsize=78125 / nal_hrd=none / filler=0 / ip_ratio=1.40 / aq=1:1.00
    Default                     : Yes
    Forced                      : No
    Color range                 : Limited
    Color primaries             : BT.709
    Transfer characteristics    : BT.709
    Matrix coefficients         : BT.709

    Audio #1
    ID                          : 2
    Format                      : AC-3
    Format/Info                 : Audio Coding 3
    Commercial name             : Dolby Digital
    Codec ID                    : A_AC3
    Duration                    : 1 h 35 min
    Bit rate mode               : Constant
    Bit rate                    : 256 kb/s
    Channel(s)                  : 2 channels
    Channel layout              : L R
    Sampling rate               : 48.0 kHz
    Frame rate                  : 31.250 FPS (1536 SPF)
    Compression mode            : Lossy
    Delay relative to video     : -5 ms
    Stream size                 : 174 MiB (6%)
    Title                       : Español Latino [CinemaniaHDD]
    Language                    : Spanish
    Service kind                : Complete Main
    Default                     : Yes
    Forced                      : No

    Audio #2
    ID                          : 3
    Format                      : AC-3
    Format/Info                 : Audio Coding 3
    Commercial name             : Dolby Digital
    Codec ID                    : A_AC3
    Duration                    : 1 h 35 min
    Bit rate mode               : Constant
    Bit rate                    : 448 kb/s
    Channel(s)                  : 6 channels
    Channel layout              : L R C LFE Ls Rs
    Sampling rate               : 48.0 kHz
    Frame rate                  : 31.250 FPS (1536 SPF)
    Compression mode            : Lossy
    Delay relative to video     : -5 ms
    Stream size                 : 305 MiB (11%)
    Title                       : Ingles [CinemaniaHDD]
    Language                    : English
    Service kind                : Complete Main
    Default                     : No
    Forced                      : No

    Text #1
    ID                          : 4
    Format                      : UTF-8
    Codec ID                    : S_TEXT/UTF8
    Codec ID/Info               : UTF-8 Plain Text
    Duration                    : 2 s 499 ms
    Bit rate                    : 137 b/s
    Count of elements           : 1
    Stream size                 : 43.0 Bytes (0%)
    Title                       : Forzados-SRT [CinemaniaHDD]
    Language                    : Spanish
    Default                     : Yes
    Forced                      : No

    Text #2
    ID                          : 5
    Format                      : UTF-8
    Codec ID                    : S_TEXT/UTF8
    Codec ID/Info               : UTF-8 Plain Text
    Duration                    : 1 h 31 min
    Bit rate                    : 107 b/s
    Count of elements           : 2051
    Stream size                 : 72.2 KiB (0%)
    Title                       : Español-SRT [CinemaniaHDD]
    Language                    : Spanish
    Default                     : No
    Forced                      : No

    Text #3
    ID                          : 6
    Format                      : UTF-8
    Codec ID                    : S_TEXT/UTF8
    Codec ID/Info               : UTF-8 Plain Text
    Duration                    : 1 h 31 min
    Bit rate                    : 93 b/s
    Count of elements           : 2106
    Stream size                 : 63.0 KiB (0%)
    Title                       : Ingles-SRT [CinemaniaHDD]
    Language                    : English
    Default                     : No
    Forced                      : No

    Menu
    00:00:00.000                : en:Heart
    00:07:00.416                : en:You Got In
    00:13:48.490                : en:Convicted Felon
    00:20:13.542                : en:New Plan
    00:28:22.405                : en:Debt Never Dies
    00:34:50.376                : en:Thinking Bigger
    00:41:27.314                : en:Talk Business
    00:51:18.822                : en:Risk
    01:00:06.224                : en:War
    01:13:23.479                : en:This Ends
    01:25:58.441                : en:Evidence
    01:33:03.366                : en:End Credits

  • Peso: 2.80 GiB

Sinopsis

Descargar Cómo Escapar De Búfalo (2019) HD 1080p Latino. Peg Dahl (Zoey Deutch) es una joven que sueña con conseguir el dinero suficiente para dejas atrás su vida en una de las zonas más pobres de su ciudad. Inteligente y mordaz, pasa los días esperando a que llegue la carta de aceptación de la Universidad a la que espera acudir. Sin embargo, cuando por fin llega la aceptación, Peg se da cuenta de que le será imposible permitirse el coste de sus estudios. Es entonces cuando decide comenzar a buscar vías de financiación que la llevarán a pasar por prisión y a conocer a un recolector de deudas que cambiará su vida para siempre.

Ficha técnica

Video trailer de la película

Enlaces de descarga

Rip de Bluray

Descargar Cómo Escapar De Búfalo (2019) HD 1080p Latino




Aportes de DPeliculasHDmega la pass es:dpeliculashdmega.org Aportes de CinemaniaHD la pass es:cinemaniahdd.com
Guardado en : Comedia , Drama , HD 1080p , Romance

Películas relacionadas

  • Hombre de familia (2000) REMUX 1080p Latino

    Hombre de familia (2000) REMUX 1080p Latino

    2000
    Hombre de familia (2000) REMUX 1080p Latino

    2h 1m 2000

    Descargar Hombre de familia (2000) REMUX 1080p Latino. Jack Campbell es un egocéntrico broker de Wall...

    Director: Robert Schroer

    Género: Comedia

    Actores: Wass Stevens

  • Te Amo Brother (2009) REMUX 1080p Latino

    Te Amo Brother (2009) REMUX 1080p Latino

    2009
    Te Amo Brother (2009) REMUX 1080p Latino

    1h 45m 2009

    Descargar Te Amo Brother (2009) REMUX 1080p Latino. Peter Klaven (Paul Rudd) es un joven que vive muy...

    Director: Scott Robertson

    Género: Comedia

    Actores: Vicki Davis

descargar Cómo Escapar De Búfalo (2019) HD 1080p Latino 1080p 1080p gratis, Cómo Escapar De Búfalo (2019) HD 1080p Latino 1080p mega 1 link, Cómo Escapar De Búfalo (2019) HD 1080p Latino 1080p pelicula completa, descargar Cómo Escapar De Búfalo (2019) HD 1080p Latino 1080p gratis en mega.

Cómo Escapar De Búfalo (2019) HD 1080p Latino pelicula full hd, Cómo Escapar De Búfalo (2019) HD 1080p Latino mega latino, Cómo Escapar De Búfalo (2019) HD 1080p Latino 4k latino, Cómo Escapar De Búfalo (2019) HD 1080p Latino pelicula completa, Cómo Escapar De Búfalo (2019) HD 1080p Latino descargar gratis, descargar Cómo Escapar De Búfalo (2019) HD 1080p Latino pelicula latino, Cómo Escapar De Búfalo (2019) HD 1080p Latino 1 link mega, Cómo Escapar De Búfalo (2019) HD 1080p Latino 1 link google drive, Cómo Escapar De Búfalo (2019) HD 1080p Latino hd 1080p latino.
Comentarios 0