Cómo entrenar a tu dragón 2 (2014) Full 1080p Latino

1.656 vistas
1 estrella2 estrellas3 estrellas4 estrellas5 estrellas (1 votos, promedio: 5,00 de 5)
Cargando…

Información de Cómo entrenar a tu dragón 2 (2014) Full 1080p Latino

Datos de la película

  • Calidad: Full 1080p
  • Audio: Español Latino AC3 5.1 BLURAY - Ingles DTS 5.1 BLURAY
  • Subtitulos: Español Latino PGS - Ingles PGS
  • Resolución: 1920X1080p
  • Formato: MKV
  • Codec: H.264
  • Encoder: Dracarys
  • Mediainfo: Clic para Mostrar Datos Ver
  • Format                                   : Matroska
    Format version                           : Version 4 / Version 2
    File size                                : 5.10 GiB
    Duration                                 : 1 h 41 min
    Overall bit rate                         : 7 160 kb/s
    Movie name                               : CinemaniaHDD.com
    Encoded date                             : UTC 2018-03-22 21:45:56 / UTC 2018-03-22T07:55:42Z
    Writing application                      : mkvmerge v15.0.0 ('Duel with the Devil') 64-bit
    Writing library                          : libebml v1.3.5 + libmatroska v1.4.5 / Lavf57.7.2

    Video
    ID                                       : 1
    Format                                   : AVC
    Format/Info                              : Advanced Video Codec
    Format profile                           : [email protected]
    Format settings                          : CABAC / 4 Ref Frames
    Format settings, CABAC                   : Yes
    Format settings, RefFrames               : 4 frames
    Codec ID                                 : V_MPEG4/ISO/AVC
    Duration                                 : 1 h 41 min
    Bit rate                                 : 5 061 kb/s
    Width                                    : 1 920 pixels
    Height                                   : 1 080 pixels
    Display aspect ratio                     : 16:9
    Frame rate mode                          : Constant
    Frame rate                               : 23.976 (24000/1001) FPS
    Color space                              : YUV
    Chroma subsampling                       : 4:2:0
    Bit depth                                : 8 bits
    Scan type                                : Progressive
    Bits/(Pixel*Frame)                       : 0.102
    Stream size                              : 3.60 GiB (71%)
    Title                                    : Cómo entrenar a tu dragón 2 (2014) Full 1080p Latino
    Writing library                          : x264 core 148 r2708 86b7198
    Encoding settings                        : cabac=1 / ref=4 / deblock=1:0:0 / analyse=0x3:0x133 / me=esa / subme=9 / psy=1 / psy_rd=1.00:0.00 / mixed_ref=1 / me_range=16 / chroma_me=1 / trellis=2 / 8x8dct=1 / cqm=0 / deadzone=21,11 / fast_pskip=1 / chroma_qp_offset=-2 / threads=34 / lookahead_threads=2 / sliced_threads=0 / nr=0 / decimate=1 / interlaced=0 / bluray_compat=0 / constrained_intra=0 / bframes=3 / b_pyramid=2 / b_adapt=2 / b_bias=0 / direct=3 / weightb=1 / open_gop=0 / weightp=2 / keyint=240 / keyint_min=24 / scenecut=40 / intra_refresh=0 / rc_lookahead=60 / rc=crf / mbtree=1 / crf=20.0 / qcomp=0.60 / qpmin=0 / qpmax=69 / qpstep=4 / vbv_maxrate=62500 / vbv_bufsize=78125 / crf_max=0.0 / nal_hrd=none / filler=0 / ip_ratio=1.40 / aq=1:1.00
    Language                                 : English
    Default                                  : Yes
    Forced                                   : No
    Color range                              : Limited
    Color primaries                          : BT.709
    Transfer characteristics                 : BT.709
    Matrix coefficients                      : BT.709
    Statistics Tags Issue                    : mkvmerge v15.0.0 ('Duel with the Devil') 64-bit 2018-03-22 21:45:56 / mkvmerge v15.0.0 ('Duel with the Devil') 64-bit 2018-03-22 21:45:56 / UTC 2018-03-22T07:55:42Z
    FromStats_BitRate                        : 5174233
    FromStats_Duration                       : 01:41:55.109000000
    FromStats_FrameCount                     : 146616
    FromStats_StreamSize                     : 3955125434

    Audio #1
    ID                                       : 2
    Format                                   : AC-3
    Format/Info                              : Audio Coding 3
    Format settings, Endianness              : Big
    Codec ID                                 : A_AC3
    Duration                                 : 1 h 41 min
    Bit rate mode                            : Constant
    Bit rate                                 : 448 kb/s
    Channel(s)                               : 6 channels
    Channel positions                        : Front: L C R, Side: L R, LFE
    Sampling rate                            : 48.0 kHz
    Frame rate                               : 31.250 FPS (1536 SPF)
    Bit depth                                : 16 bits
    Compression mode                         : Lossy
    Stream size                              : 327 MiB (6%)
    Language                                 : Spanish
    Service kind                             : Complete Main
    Default                                  : Yes
    Forced                                   : No
    Statistics Tags Issue                    : mkvmerge v15.0.0 ('Duel with the Devil') 64-bit 2018-03-22 21:45:56 / mkvmerge v15.0.0 ('Duel with the Devil') 64-bit 2018-03-22 21:45:56 / UTC 2018-03-22T07:55:42Z
    FromStats_BitRate                        : 448000
    FromStats_Duration                       : 01:41:56.160000000
    FromStats_FrameCount                     : 191130
    FromStats_StreamSize                     : 342504960

    Audio #2
    ID                                       : 3
    Format                                   : DTS
    Format/Info                              : Digital Theater Systems
    Format profile                           : ES Matrix / Core
    Mode                                     : 16
    Format settings, Endianness              : Big
    Codec ID                                 : A_DTS
    Duration                                 : 1 h 41 min
    Bit rate mode                            : Constant
    Bit rate                                 : 1 509 kb/s
    Channel(s)                               : 7 channels / 6 channels
    Channel positions                        : Front: L C R, Side: L R, Back: C, LFE / Front: L C R, Side: L R, LFE
    Sampling rate                            : 48.0 kHz
    Frame rate                               : 93.750 FPS (512 SPF)
    Bit depth                                : 24 bits
    Compression mode                         : Lossy
    Delay relative to video                  : 43 ms
    Stream size                              : 1.07 GiB (21%)
    Language                                 : English
    Default                                  : No
    Forced                                   : No
    Statistics Tags Issue                    : mkvmerge v15.0.0 ('Duel with the Devil') 64-bit 2018-03-22 21:45:56 / mkvmerge v15.0.0 ('Duel with the Devil') 64-bit 2018-03-22 21:45:56 / UTC 2018-03-22T07:55:42Z
    FromStats_BitRate                        : 1509000
    FromStats_Duration                       : 01:41:55.061000000
    FromStats_FrameCount                     : 573287
    FromStats_StreamSize                     : 1153453444

    Text #1
    ID                                       : 4
    Format                                   : PGS
    Muxing mode                              : zlib
    Codec ID                                 : S_HDMV/PGS
    Codec ID/Info                            : Picture based subtitle format used on BDs/HD-DVDs
    Language                                 : English
    Default                                  : No
    Forced                                   : No
    Statistics Tags Issue                    : mkvmerge v15.0.0 ('Duel with the Devil') 64-bit 2018-03-22 21:45:56 / mkvmerge v15.0.0 ('Duel with the Devil') 64-bit 2018-03-22 21:45:56 / UTC 2018-03-22T07:55:42Z
    FromStats_BitRate                        : 30163
    FromStats_Duration                       : 01:31:07.254000000
    FromStats_FrameCount                     : 2288
    FromStats_StreamSize                     : 20614131

    Text #2
    ID                                       : 5
    Format                                   : PGS
    Muxing mode                              : zlib
    Codec ID                                 : S_HDMV/PGS
    Codec ID/Info                            : Picture based subtitle format used on BDs/HD-DVDs
    Language                                 : Spanish
    Default                                  : No
    Forced                                   : No
    Statistics Tags Issue                    : mkvmerge v15.0.0 ('Duel with the Devil') 64-bit 2018-03-22 21:45:56 / mkvmerge v15.0.0 ('Duel with the Devil') 64-bit 2018-03-22 21:45:56 / UTC 2018-03-22T07:55:42Z
    FromStats_BitRate                        : 44847
    FromStats_Duration                       : 01:31:16.101000000
    FromStats_FrameCount                     : 2180
    FromStats_StreamSize                     : 30698895

    Menu
    00:00:00.000                             : :Chapter 1
    00:03:27.999                             : :Chapter 2
    00:05:20.695                             : :Chapter 3
    00:07:46.007                             : :Chapter 4
    00:10:16.032                             : :Chapter 5
    00:13:16.337                             : :Chapter 6
    00:16:59.060                             : :Chapter 7
    00:20:01.701                             : :Chapter 8
    00:23:43.255                             : :Chapter 9
    00:27:14.466                             : :Chapter 10
    00:29:21.468                             : :Chapter 11
    00:33:41.937                             : :Chapter 12
    00:37:05.473                             : :Chapter 13
    00:39:06.970                             : :Chapter 14
    00:40:59.165                             : :Chapter 15
    00:45:03.993                             : :Chapter 16
    00:47:16.625                             : :Chapter 17
    00:51:51.525                             : :Chapter 18
    00:54:35.731                             : :Chapter 19
    00:56:15.998                             : :Chapter 20
    01:00:33.171                             : :Chapter 21
    01:04:28.782                             : :Chapter 22
    01:06:34.949                             : :Chapter 23
    01:09:44.138                             : :Chapter 24
    01:14:01.145                             : :Chapter 25
    01:18:35.127                             : :Chapter 26
    01:21:07.154                             : :Chapter 27
    01:22:55.053                             : :Chapter 28
    01:24:30.065                             : :Chapter 29
    01:28:04.654                             : :Chapter 30
    01:31:03.500                             : :Chapter 31
    01:32:21.995                             : :Chapter 32

  • Peso: 5.10 GiB

Sinopsis

Han pasado cinco años desde los sucesos que llevaron a Hiccup a conseguir entrenar a su dragón, rompiendo la estela de su pueblo vikingo de cazarlos. Astrid y el resto de la pandilla ha conseguido que la isla tome contacto con un nuevo deporte: las carreras de dragones. Mientras realizan una carrera, atraviesan los cielos llegando a territorios inhóspitos, donde nadie antes ha estado.

Ficha técnica

Video trailer de la película

Enlaces de descarga

Rip de Bluray

Descargar Cómo entrenar a tu dragón 2 (2014) Full 1080p Latino




Aportes de DPeliculasHDmega la pass es:dpeliculashdmega.org Aportes de CinemaniaHD la pass es:cinemaniahdd.com

Películas relacionadas

  • El Reino de los Supermanes (2019) 1080p Latino

    2019
    El Reino de los Supermanes (2019) 1080p Latino

    5.0 1h 27m 2019

    Descargar El Reino de los Supermanes (2019) 1080p Latino, Mega, Google Drive, Torrent. Superman ha muerto...

    Director: Sam Liu

    Género: Acción

    Actores: Trevor Devall

  • Campeones (2018) HD 1080p Español

    2018
    Campeones (2018) HD 1080p Español

    0.0 2h 4m 2018

    Descargar Campeones (2018) HD 1080p Español, Mega, Google Drive, Torrent. Marco, un entrenador profesional...

    Director: Javier Fesser

    Género: Castellano

    Actores: Yiyo Alonso

  • Hunter Killer (2018) HD 1080p Latino

    2018
    Hunter Killer (2018) HD 1080p Latino

    3.0 2h 2m 2018

    Descargar Hunter Killer (2018) HD 1080p Latino, Mega, Google Drive, Torrent. Un capitán de submarinos...

    Director: Donovan Marsh

    Género: Acción

    Actores: Zane Holtz

  • Sorry For Your Loss (2018) AMZN 1080p Latino

    2018
    Sorry For Your Loss (2018) AMZN 1080p Latino

    5.0 1h 40m 2018

    Sorry for Your Loss es una comedia oscura que narra la historia de una joven viuda Leigh Gibbs. Para...

    Director: Collin Friesen

    Género: Comedia

    Actores: Sandrine Holt

Comentarios 2
  • iDeztrukxion - 27 marzo, 2018

    los links de mega son de la primer película! por cierto buen aporte… muchas gracias por subirlas

    • dpelis - 27 marzo, 2018

      enlaces reparados