×

¿Problemas para descargar con Mozilla, EDGE? Deshabilita la opción "Abrir vinculos en una pestaña nueva" tal como lo muestra ésta imagen.

Cómo Conocí A Tu Madre (2011) Temporada 7 NF WEB-DL 1080p Latino

978 vistas

Información de Cómo Conocí A Tu Madre (2011) Temporada 7 NF WEB-DL 1080p Latino

Datos de la película

  • Calidad: WEBDL
  • Audio: Español Latino AC3 2.0 Netflix - Ingles AC3 5.1 Netflix
  • Subtitulos: Español Latino SRT
  • Resolución: 1920x1080
  • Formato: MKV
  • Codec: H.264
  • Encoder: cinemaniahdd
  • Mediainfo: Clic para Mostrar Datos Ver
  • Cómo Conocí A Tu Madre S07E01 NF WEB-DL 1080p Latino.mkv
    Format                      : Matroska
    Format version              : Version 4
    File size                   : 901 MiB
    Duration                    : 21 min 55 s
    Overall bit rate            : 5 745 kb/s
    Movie name                  : Cómo Conocí A Tu Madre S07E01 - CinemaniaHDD.Net
    Encoded date                : UTC 2018-08-09 00:00:02
    Writing application         : mkvmerge v23.0.0 ('The Bride Said No') 64-bit
    Writing library             : libebml v1.3.6 + libmatroska v1.4.9

    Video
    ID                          : 1
    Format                      : AVC
    Format/Info                 : Advanced Video Codec
    Format profile              : High@L4
    Format settings             : CABAC / 4 Ref Frames
    Format settings, CABAC      : Yes
    Format settings, ReFrames   : 4 frames
    Codec ID                    : V_MPEG4/ISO/AVC
    Duration                    : 21 min 36 s
    Bit rate                    : 5 314 kb/s
    Width                       : 1 920 pixels
    Height                      : 1 080 pixels
    Display aspect ratio        : 16:9
    Frame rate mode             : Constant
    Frame rate                  : 23.976 (23976/1000) FPS
    Color space                 : YUV
    Chroma subsampling          : 4:2:0
    Bit depth                   : 8 bits
    Scan type                   : Progressive
    Bits/(Pixel*Frame)          : 0.107
    Stream size                 : 821 MiB (91%)
    Title                       : CinemaniaHDD
    Language                    : English
    Default                     : Yes
    Forced                      : No
    Color range                 : Limited
    Color primaries             : BT.709
    Transfer characteristics    : BT.709
    Matrix coefficients         : BT.709

    Audio #1
    ID                          : 2
    Format                      : AC-3
    Format/Info                 : Audio Coding 3
    Commercial name             : Dolby Digital
    Codec ID                    : A_AC3
    Duration                    : 21 min 36 s
    Bit rate mode               : Constant
    Bit rate                    : 384 kb/s
    Channel(s)                  : 6 channels
    Channel layout              : L R C LFE Ls Rs
    Sampling rate               : 48.0 kHz
    Frame rate                  : 31.250 FPS (1536 SPF)
    Bit depth                   : 16 bits
    Compression mode            : Lossy
    Stream size                 : 59.3 MiB (7%)
    Title                       : Español latino [CinemaniaHDD]
    Language                    : Spanish
    Service kind                : Complete Main
    Default                     : No
    Forced                      : No

    Audio #2
    ID                          : 3
    Format                      : E-AC-3
    Format/Info                 : Enhanced AC-3
    Commercial name             : Dolby Digital Plus
    Codec ID                    : A_EAC3
    Duration                    : 21 min 55 s
    Bit rate mode               : Constant
    Bit rate                    : 128 kb/s
    Channel(s)                  : 2 channels
    Channel layout              : L R
    Sampling rate               : 48.0 kHz
    Frame rate                  : 31.250 FPS (1536 SPF)
    Compression mode            : Lossy
    Stream size                 : 20.1 MiB (2%)
    Title                       : Inglés [CinemaniaHDD]
    Language                    : English
    Service kind                : Complete Main
    Default                     : Yes
    Forced                      : No

    Text
    ID                          : 4
    Format                      : UTF-8
    Codec ID                    : S_TEXT/UTF8
    Codec ID/Info               : UTF-8 Plain Text
    Duration                    : 21 min 2 s
    Bit rate                    : 99 b/s
    Count of elements           : 442
    Stream size                 : 15.4 KiB (0%)
    Title                       : Español latino [CinemaniaHDD]
    Language                    : Spanish
    Default                     : No
    Forced                      : No

     

  • Peso: 901 MiB C/U

Sinopsis

Serie de TV (2005-2014). 9 temporadas. 208 episodios. Ted (Josh Radnor) les cuenta a sus dos hijos cómo conoció a su madre y cómo fue su vida hasta que, por fin, encontró el amor verdadero. Contó para ello con la ayuda de su amigo Barney (Neil Patrick Harris), un joven algo extravagante, adicto a los somníferos y muy hábil para conocer mujeres. Cuando Ted conoce a Robin (Cobie Smulders), una impresionante joven canadiense que acaba de mudarse a Nueva York, está completamente seguro de que es amor a primera vista.

Ficha técnica

Video trailer de la película

Enlaces de descarga

Rip de Bluray

Descargar Cómo Conocí A Tu Madre (2011) Temporada 7 NF WEB-DL 1080p Latino




Aportes de DPeliculasHDmega la pass es:dpeliculashdmega.org Aportes de CinemaniaHD la pass es:cinemaniahdd.com
Guardado en : Comedia , Netflix , Series

Películas relacionadas

  • M3GAN (2023) AMZN WEB-DL 4K UHD HDR Latino

    M3GAN (2023) AMZN WEB-DL 4K UHD HDR Latino

    2022
    M3GAN (2023) AMZN WEB-DL 4K UHD HDR Latino

    1h 42m 2022

    Descargar M3GAN (2023) AMZN WEB-DL 4K UHD HDR Latino. Cuando Gemma se convierte en la cuidadora de su...

    Director: Stephen W. Moore

    Género: 4K HDR

    Actores: Violet McGraw

  • M3GAN (2022) MA WEB-DL 1080p Latino

    M3GAN (2022) MA WEB-DL 1080p Latino

    2022
    M3GAN (2022) MA WEB-DL 1080p Latino

    1h 42m 2022

    Descargar M3GAN (2022) MA WEB-DL 1080p Latino. Cuando Gemma se convierte en la cuidadora de su sobrina...

    Director: Stephen W. Moore

    Género: Ciencia ficción

    Actores: Violet McGraw

  • Noche sin paz (2022) PLACEBO Full HD 1080p Latino

    Noche sin paz (2022) PLACEBO Full HD 1080p Latino

    2022
    Noche sin paz (2022) PLACEBO Full HD 1080p Latino

    1h 41m 2022

    Descargar Noche sin paz (2022) PLACEBO Full HD 1080p Latino. Cuando un equipo de mercenarios irrumpe...

    Director: Tyshana Hobson

    Género: Acción

    Actores: Yoon Cha-Lee

  • Noche sin paz (2022) HD 1080p Latino

    Noche sin paz (2022) HD 1080p Latino

    2022
    Noche sin paz (2022) HD 1080p Latino

    1h 41m 2022

    Descargar Noche sin paz (2022) HD 1080p Latino. Cuando un equipo de mercenarios irrumpe en Nochebuena...

    Director: Tyshana Hobson

    Género: Acción

    Actores: Yoon Cha-Lee

  • Noche sin paz (2022) REMUX 1080p Latino

    Noche sin paz (2022) REMUX 1080p Latino

    2022
    Noche sin paz (2022) REMUX 1080p Latino

    1h 41m 2022

    Descargar Noche sin paz (2022) REMUX 1080p Latino. Cuando un equipo de mercenarios irrumpe en Nochebuena...

    Director: Tyshana Hobson

    Género: Acción

    Actores: Yoon Cha-Lee

descargar Cómo Conocí A Tu Madre (2011) Temporada 7 NF WEB-DL 1080p Latino WEBDL 1080p gratis, Cómo Conocí A Tu Madre (2011) Temporada 7 NF WEB-DL 1080p Latino WEBDL mega 1 link, Cómo Conocí A Tu Madre (2011) Temporada 7 NF WEB-DL 1080p Latino WEBDL serie completa, descargar Cómo Conocí A Tu Madre (2011) Temporada 7 NF WEB-DL 1080p Latino WEBDL gratis en mega.

Cómo Conocí A Tu Madre (2011) Temporada 7 NF WEB-DL 1080p Latino pelicula full hd, Cómo Conocí A Tu Madre (2011) Temporada 7 NF WEB-DL 1080p Latino mega latino, Cómo Conocí A Tu Madre (2011) Temporada 7 NF WEB-DL 1080p Latino 4k latino, Cómo Conocí A Tu Madre (2011) Temporada 7 NF WEB-DL 1080p Latino pelicula completa, Cómo Conocí A Tu Madre (2011) Temporada 7 NF WEB-DL 1080p Latino descargar gratis, descargar Cómo Conocí A Tu Madre (2011) Temporada 7 NF WEB-DL 1080p Latino pelicula latino, Cómo Conocí A Tu Madre (2011) Temporada 7 NF WEB-DL 1080p Latino 1 link mega, Cómo Conocí A Tu Madre (2011) Temporada 7 NF WEB-DL 1080p Latino 1 link google drive, Cómo Conocí A Tu Madre (2011) Temporada 7 NF WEB-DL 1080p Latino hd 1080p latino.
Comentarios 8
  • Erick - 16 febrero, 2020

    No se pueden ver los links!!! Aiudaaaa por favor 🙁

    • CinemaniaHDD - 16 febrero, 2020

      es error interno. nuestro programador no encuentra el fallo.
      ya agremamos de momento la opcion para descargar los episodios por medio de JD2

  • Cano - 14 febrero, 2020

    oie creo ya tumbaron las temporadas si las puedes subir otra vez estaria con madre baje hasta la 5

    • CinemaniaHDD - 16 febrero, 2020

      es error interno. nuestro programador no encuentra el fallo.
      ya agremamos de momento la opcion para descargar los episodios por medio de JD2

  • Erick - 09 febrero, 2020

    No se pueden ver los enlaces, aparece un error 504 gateway timeout, por favor si lo arreglan les agradeceria mucho, son los mejores 😀

    • CinemaniaHDD - 16 febrero, 2020

      es error interno. nuestro programador no encuentra el fallo.
      ya agremamos de momento la opcion para descargar los episodios por medio de JD2

  • Zaster - 05 febrero, 2020

    Muchas gracias por subir todas las temporadas. Lo estaba esperando desde que subieron las primeras dos.

    Solo tengo un problema esta temporada es la única que no deja acceder a los enlaces, los marca como fuera de linea. Podrian checarlo por favor?

    • CinemaniaHDD - 16 febrero, 2020

      es error interno. nuestro programador no encuentra el fallo.
      ya agremamos de momento la opcion para descargar los episodios por medio de JD2