×

¿Problemas para descargar con Mozilla, EDGE? Deshabilita la opción "Abrir vinculos en una pestaña nueva" tal como lo muestra ésta imagen.

Cómo Conocí A Tu Madre (2009) Temporada 5 NF WEB-DL 1080p Latino

718 vistas

Información de Cómo Conocí A Tu Madre (2009) Temporada 5 NF WEB-DL 1080p Latino

Datos de la película

  • Calidad: WEBDL
  • Audio: Español Latino AC3 2.0 Netflix - Ingles AC3 5.1 Netflix
  • Subtitulos: Español Latino SRT
  • Resolución: 1920x1080
  • Formato: MKV
  • Codec: H.264
  • Encoder: cinemaniahdd
  • Mediainfo: Clic para Mostrar Datos Ver
  • Cómo Conocí A Tu Madre S05E01 NF WEB-DL 1080p Latino.mkv
    Format                      : Matroska
    Format version              : Version 4
    File size                   : 686 MiB
    Duration                    : 21 min 59 s
    Overall bit rate            : 4 362 kb/s
    Movie name                  : Cómo Conocí A Tu Madre S05E01 - CinemaniaHDD.Net
    Encoded date                : UTC 2020-01-12 02:47:26
    Writing application         : mkvmerge v38.0.0 ('The Silent Type') 64-bit
    Writing library             : libebml v1.3.9 + libmatroska v1.5.2

    Video
    ID                          : 1
    Format                      : AVC
    Format/Info                 : Advanced Video Codec
    Format profile              : Main@L4.1
    Format settings             : CABAC / 4 Ref Frames
    Format settings, CABAC      : Yes
    Format settings, ReFrames   : 4 frames
    Codec ID                    : V_MPEG4/ISO/AVC
    Duration                    : 21 min 31 s
    Bit rate                    : 4 000 kb/s
    Width                       : 1 920 pixels
    Height                      : 1 080 pixels
    Display aspect ratio        : 16:9
    Frame rate mode             : Constant
    Frame rate                  : 23.976 (24000/1001) FPS
    Color space                 : YUV
    Chroma subsampling          : 4:2:0
    Bit depth                   : 8 bits
    Scan type                   : Progressive
    Bits/(Pixel*Frame)          : 0.080
    Stream size                 : 607 MiB (88%)
    Title                       : CinemaniaHDD
    Writing library             : x264 core 148 r2708 86b7198
    Encoding settings           : cabac=1 / ref=2 / deblock=1:-1:-1 / analyse=0x1:0x111 / me=hex / subme=4 / psy=1 / psy_rd=1.00:0.15 / mixed_ref=0 / me_range=16 / chroma_me=1 / trellis=1 / 8x8dct=0 / cqm=0 / deadzone=21,11 / fast_pskip=1 / chroma_qp_offset=-1 / threads=12 / lookahead_threads=3 / sliced_threads=0 / nr=0 / decimate=1 / interlaced=0 / bluray_compat=0 / constrained_intra=0 / bframes=3 / b_pyramid=2 / b_adapt=1 / b_bias=0 / direct=1 / weightb=1 / open_gop=0 / weightp=1 / keyint=240 / keyint_min=24 / scenecut=40 / intra_refresh=0 / rc_lookahead=20 / rc=abr / mbtree=1 / bitrate=4000 / ratetol=1.0 / qcomp=0.60 / qpmin=0 / qpmax=69 / qpstep=4 / vbv_maxrate=50000 / vbv_bufsize=62500 / nal_hrd=none / filler=0 / ip_ratio=1.40 / aq=1:1.00
    Default                     : Yes
    Forced                      : No
    Color range                 : Limited
    Color primaries             : BT.709
    Transfer characteristics    : BT.709
    Matrix coefficients         : BT.709

    Audio #1
    ID                          : 2
    Format                      : E-AC-3
    Format/Info                 : Enhanced AC-3
    Commercial name             : Dolby Digital Plus
    Codec ID                    : A_EAC3
    Duration                    : 21 min 59 s
    Bit rate mode               : Constant
    Bit rate                    : 128 kb/s
    Channel(s)                  : 2 channels
    Channel layout              : L R
    Sampling rate               : 48.0 kHz
    Frame rate                  : 31.250 FPS (1536 SPF)
    Compression mode            : Lossy
    Stream size                 : 20.1 MiB (3%)
    Title                       : Español latino [CinemaniaHDD]
    Language                    : Spanish
    Service kind                : Complete Main
    Default                     : Yes
    Forced                      : No

    Audio #2
    ID                          : 3
    Format                      : AC-3
    Format/Info                 : Audio Coding 3
    Commercial name             : Dolby Digital
    Codec ID                    : A_AC3
    Duration                    : 21 min 31 s
    Bit rate mode               : Constant
    Bit rate                    : 384 kb/s
    Channel(s)                  : 6 channels
    Channel layout              : L R C LFE Ls Rs
    Sampling rate               : 48.0 kHz
    Frame rate                  : 31.250 FPS (1536 SPF)
    Bit depth                   : 16 bits
    Compression mode            : Lossy
    Stream size                 : 59.1 MiB (9%)
    Title                       : Inglés [CinemaniaHDD]
    Language                    : English
    Service kind                : Complete Main
    Default                     : No
    Forced                      : No

    Text
    ID                          : 4
    Format                      : UTF-8
    Codec ID                    : S_TEXT/UTF8
    Codec ID/Info               : UTF-8 Plain Text
    Duration                    : 20 min 57 s
    Bit rate                    : 99 b/s
    Count of elements           : 377
    Stream size                 : 15.3 KiB (0%)
    Title                       : Español latino [CinemaniaHDD]
    Language                    : Spanish
    Default                     : No
    Forced                      : No

     

  • Peso: 686 MiB

Sinopsis

Serie de TV (2005-2014). 9 temporadas. 208 episodios. Ted (Josh Radnor) les cuenta a sus dos hijos cómo conoció a su madre y cómo fue su vida hasta que, por fin, encontró el amor verdadero. Contó para ello con la ayuda de su amigo Barney (Neil Patrick Harris), un joven algo extravagante, adicto a los somníferos y muy hábil para conocer mujeres. Cuando Ted conoce a Robin (Cobie Smulders), una impresionante joven canadiense que acaba de mudarse a Nueva York, está completamente seguro de que es amor a primera vista.

Ficha técnica

Video trailer de la película

Enlaces de descarga

Rip de Bluray

Descargar Cómo Conocí A Tu Madre (2009) Temporada 5 NF WEB-DL 1080p Latino




Aportes de DPeliculasHDmega la pass es:dpeliculashdmega.org Aportes de CinemaniaHD la pass es:cinemaniahdd.com
Guardado en : Comedia , Netflix , Series

Películas relacionadas

descargar Cómo Conocí A Tu Madre (2009) Temporada 5 NF WEB-DL 1080p Latino WEBDL 1080p gratis, Cómo Conocí A Tu Madre (2009) Temporada 5 NF WEB-DL 1080p Latino WEBDL mega 1 link, Cómo Conocí A Tu Madre (2009) Temporada 5 NF WEB-DL 1080p Latino WEBDL serie completa, descargar Cómo Conocí A Tu Madre (2009) Temporada 5 NF WEB-DL 1080p Latino WEBDL gratis en mega.

Cómo Conocí A Tu Madre (2009) Temporada 5 NF WEB-DL 1080p Latino pelicula full hd, Cómo Conocí A Tu Madre (2009) Temporada 5 NF WEB-DL 1080p Latino mega latino, Cómo Conocí A Tu Madre (2009) Temporada 5 NF WEB-DL 1080p Latino 4k latino, Cómo Conocí A Tu Madre (2009) Temporada 5 NF WEB-DL 1080p Latino pelicula completa, Cómo Conocí A Tu Madre (2009) Temporada 5 NF WEB-DL 1080p Latino descargar gratis, descargar Cómo Conocí A Tu Madre (2009) Temporada 5 NF WEB-DL 1080p Latino pelicula latino, Cómo Conocí A Tu Madre (2009) Temporada 5 NF WEB-DL 1080p Latino 1 link mega, Cómo Conocí A Tu Madre (2009) Temporada 5 NF WEB-DL 1080p Latino 1 link google drive, Cómo Conocí A Tu Madre (2009) Temporada 5 NF WEB-DL 1080p Latino hd 1080p latino.
Comentarios 0