×

¿Problemas para descargar con Mozilla, EDGE? Deshabilita la opción "Abrir vinculos en una pestaña nueva" tal como lo muestra ésta imagen.

Coming to America (1988) REMUX 4K HDR Latino – CMHDD

208 vistas

Información de Coming to America (1988) REMUX 4K HDR Latino – CMHDD

Datos de la película

  • Calidad: 4K HDR
  • Audio: Se especifica abajo de la Sinopsis
  • Subtitulos: Español Latino PGS
  • Resolución: 3840x2160p
  • Formato: MKV
  • Codec: HEVC
  • Encoder: Dracarys
  • Mediainfo: Clic para Mostrar Datos Ver
  • Format                      : Matroska
    Format version              : Version 4
    File size                   : 52.8 GiB
    Duration                    : 1 h 56 min
    Overall bit rate mode       : Variable
    Overall bit rate            : 64.7 Mb/s
    Movie name                  : Coming to America (1988) REMUX 4K Latino - CMHDD
    Encoded date                : UTC 2021-03-09 03:50:37
    Writing application         : mkvmerge v51.0.0 ('I Wish') 64-bit
    Writing library             : libebml v1.4.0 + libmatroska v1.6.2

    Video
    ID                          : 1
    ID in the original source m : 4113 (0x1011)
    Format                      : HEVC
    Format/Info                 : High Efficiency Video Coding
    Format profile              : Main 10@L5.1@High
    HDR format                  : SMPTE ST 2086, HDR10 compatible
    Codec ID                    : V_MPEGH/ISO/HEVC
    Duration                    : 1 h 56 min
    Bit rate                    : 60.4 Mb/s
    Width                       : 3 840 pixels
    Height                      : 2 160 pixels
    Display aspect ratio        : 16:9
    Frame rate mode             : Constant
    Frame rate                  : 23.976 (24000/1001) FPS
    Color space                 : YUV
    Chroma subsampling          : 4:2:0 (Type 2)
    Bit depth                   : 10 bits
    Bits/(Pixel*Frame)          : 0.304
    Stream size                 : 49.2 GiB (93%)
    Language                    : English
    Default                     : No
    Forced                      : No
    Color range                 : Limited
    Color primaries             : BT.2020
    Transfer characteristics    : PQ
    Matrix coefficients         : BT.2020 non-constant
    Mastering display color pri : Display P3
    Mastering display luminance : min: 0.0050 cd/m2, max: 4000 cd/m2
    Maximum Content Light Level : 1000 cd/m2
    Maximum Frame-Average Light : 228 cd/m2
    Original source medium      : Blu-ray

    Audio #1
    ID                          : 2
    Format                      : E-AC-3
    Format/Info                 : Enhanced AC-3
    Commercial name             : Dolby Digital Plus
    Codec ID                    : A_EAC3
    Duration                    : 1 h 56 min
    Bit rate mode               : Constant
    Bit rate                    : 224 kb/s
    Channel(s)                  : 2 channels
    Channel layout              : L R
    Sampling rate               : 48.0 kHz
    Frame rate                  : 31.250 FPS (1536 SPF)
    Compression mode            : Lossy
    Stream size                 : 187 MiB (0%)
    Language                    : Spanish
    Service kind                : Complete Main
    Default                     : Yes
    Forced                      : No

    Audio #2
    ID                          : 3
    Format                      : AC-3
    Format/Info                 : Audio Coding 3
    Commercial name             : Dolby Digital
    Codec ID                    : A_AC3
    Duration                    : 1 h 56 min
    Bit rate mode               : Constant
    Bit rate                    : 256 kb/s
    Channel(s)                  : 2 channels
    Channel layout              : L R
    Sampling rate               : 48.0 kHz
    Frame rate                  : 31.250 FPS (1536 SPF)
    Compression mode            : Lossy
    Stream size                 : 214 MiB (0%)
    Language                    : Spanish
    Service kind                : Complete Main
    Default                     : No
    Forced                      : No

    Audio #3
    ID                          : 4
    Format                      : AC-3
    Format/Info                 : Audio Coding 3
    Commercial name             : Dolby Digital
    Codec ID                    : A_AC3
    Duration                    : 1 h 56 min
    Bit rate mode               : Constant
    Bit rate                    : 192 kb/s
    Channel(s)                  : 2 channels
    Channel layout              : L R
    Sampling rate               : 48.0 kHz
    Frame rate                  : 31.250 FPS (1536 SPF)
    Compression mode            : Lossy
    Stream size                 : 160 MiB (0%)
    Language                    : English
    Service kind                : Complete Main
    Default                     : No
    Forced                      : No

    Audio #4
    ID                          : 5
    Format                      : DTS XLL
    Format/Info                 : Digital Theater Systems
    Commercial name             : DTS-HD Master Audio
    Codec ID                    : A_DTS
    Duration                    : 1 h 56 min
    Bit rate mode               : Variable
    Bit rate                    : 3 694 kb/s
    Channel(s)                  : 6 channels
    Channel layout              : C L R Ls Rs LFE
    Sampling rate               : 48.0 kHz
    Frame rate                  : 93.750 FPS (512 SPF)
    Bit depth                   : 24 bits
    Compression mode            : Lossless
    Stream size                 : 3.01 GiB (6%)
    Language                    : English
    Default                     : No
    Forced                      : No

    Text #1
    ID                          : 6
    Format                      : UTF-8
    Codec ID                    : S_TEXT/UTF8
    Codec ID/Info               : UTF-8 Plain Text
    Duration                    : 1 h 41 min
    Bit rate                    : 0 b/s
    Count of elements           : 14
    Stream size                 : 409 Bytes (0%)
    Language                    : Spanish
    Default                     : Yes
    Forced                      : No

    Text #2
    ID                          : 7
    Format                      : UTF-8
    Codec ID                    : S_TEXT/UTF8
    Codec ID/Info               : UTF-8 Plain Text
    Duration                    : 1 h 51 min
    Bit rate                    : 57 b/s
    Count of elements           : 1373
    Stream size                 : 46.9 KiB (0%)
    Language                    : Spanish
    Default                     : No
    Forced                      : No

    Text #3
    ID                          : 8
    Format                      : PGS
    Muxing mode                 : zlib
    Codec ID                    : S_HDMV/PGS
    Codec ID/Info               : Picture based subtitle format used on BDs/HD-DVDs
    Duration                    : 1 h 55 min
    Bit rate                    : 27.9 kb/s
    Count of elements           : 1952
    Stream size                 : 23.1 MiB (0%)
    Language                    : Spanish
    Default                     : No
    Forced                      : No

    Menu
    00:00:00.000                : en:Opening Credits
    00:02:41.620                : en:Happy Birthday
    00:06:18.211                : en:Trouble In Paradise
    00:12:11.731                : en:Here Comes The Bride
    00:20:26.600                : en:Royal Oats
    00:22:41.151                : en:America
    00:26:28.420                : en:Meeting The Locals
    00:32:06.174                : en:Barber Shop Quartet
    00:34:18.223                : en:In Search Of A Queen
    00:37:22.782                : en:Black Awareness Week
    00:44:09.897                : en:Working With The Natives
    00:50:15.346                : en:The Way To A Woman's Heart
    00:56:23.922                : en:Take Me Out To The Ball Game
    00:59:32.736                : en:Mopping Up
    01:02:47.013                : en:Engagement Party?
    01:10:28.641                : en:Humble Abode
    01:14:38.724                : en:To Be Loved...
    01:22:03.919                : en:Riches To Rags
    01:24:06.416                : en:A King In New York
    01:31:42.956                : en:Hospitality
    01:35:44.280                : en:The Truth
    01:41:25.079                : en:Take A Chance
    01:46:31.135                : en:Here Comes The Bride - Take 2
    01:50:44.471                : en:End Credits

  • Peso: 52.8 GiB

Sinopsis

El principe Akeen del africano reino de Zamunda cumple veintiún años. Su futura esposa ya ha sido elegida por el rey y es presentada en la corte. Akeen decide ir a Norteamérica para buscar novia de su gusto. Un barrio marginal de Nueva York será su morada.

 

Latino: E-AC3 + AC3 2.0  –  Ingles: DTS-HD MA 5.1

Ficha técnica

Video trailer de la película

Enlaces de descarga

Rip de Bluray

Descargar Coming to America (1988) REMUX 4K HDR Latino – CMHDD


Aportes de DPeliculasHDmega la pass es:dpeliculashdmega.org Aportes de CinemaniaHD la pass es:cinemaniahdd.com
Guardado en : Comedia , Romance

Películas relacionadas

descargar Coming to America (1988) REMUX 4K HDR Latino – CMHDD 4K HDR 1080p gratis, Coming to America (1988) REMUX 4K HDR Latino – CMHDD 4K HDR mega 1 link, Coming to America (1988) REMUX 4K HDR Latino – CMHDD 4K HDR pelicula completa, descargar Coming to America (1988) REMUX 4K HDR Latino – CMHDD 4K HDR gratis en mega.

Coming to America (1988) REMUX 4K HDR Latino – CMHDD pelicula full hd, Coming to America (1988) REMUX 4K HDR Latino – CMHDD mega latino, Coming to America (1988) REMUX 4K HDR Latino – CMHDD 4k latino, Coming to America (1988) REMUX 4K HDR Latino – CMHDD pelicula completa, Coming to America (1988) REMUX 4K HDR Latino – CMHDD descargar gratis, descargar Coming to America (1988) REMUX 4K HDR Latino – CMHDD pelicula latino, Coming to America (1988) REMUX 4K HDR Latino – CMHDD 1 link mega, Coming to America (1988) REMUX 4K HDR Latino – CMHDD 1 link google drive, Coming to America (1988) REMUX 4K HDR Latino – CMHDD hd 1080p latino.