×

¿Problemas para descargar con Mozilla, EDGE? Deshabilita la opción "Abrir vinculos en una pestaña nueva" tal como lo muestra ésta imagen.

Coming to America (1988) REMUX 1080p Latino – CMHDD

811 vistas

Información de Coming to America (1988) REMUX 1080p Latino – CMHDD

Datos de la película

  • Calidad: Full 1080p
  • Audio: Se especifica abajo de la Sinopsis
  • Subtitulos: Español Latino PGS
  • Resolución: 1920x1080p
  • Formato: MKV
  • Codec: H.264
  • Encoder: Dracarys
  • Mediainfo: Clic para Mostrar Datos Ver
  • Format                      : Matroska
    Format version              : Version 4
    File size                   : 28.7 GiB
    Duration                    : 1 h 56 min
    Overall bit rate mode       : Variable
    Overall bit rate            : 35.1 Mb/s
    Movie name                  : Coming to America (1988) REMUX 1080p Latino - CMHDD
    Encoded date                : UTC 2021-03-08 03:14:29
    Writing application         : mkvmerge v51.0.0 ('I Wish') 64-bit
    Writing library             : libebml v1.4.0 + libmatroska v1.6.2

    Video
    ID                          : 1
    Format                      : AVC
    Format/Info                 : Advanced Video Codec
    Format profile              : High@L4.1
    Format settings             : CABAC / 2 Ref Frames
    Format settings, CABAC      : Yes
    Format settings, Reference  : 2 frames
    Format settings, GOP        : M=1, N=10
    Codec ID                    : V_MPEG4/ISO/AVC
    Duration                    : 1 h 56 min
    Bit rate mode               : Variable
    Bit rate                    : 30.8 Mb/s
    Width                       : 1 920 pixels
    Height                      : 1 080 pixels
    Display aspect ratio        : 16:9
    Frame rate mode             : Constant
    Frame rate                  : 23.976 (24000/1001) FPS
    Color space                 : YUV
    Chroma subsampling          : 4:2:0
    Bit depth                   : 8 bits
    Scan type                   : Progressive
    Bits/(Pixel*Frame)          : 0.620
    Stream size                 : 25.2 GiB (88%)
    Default                     : Yes
    Forced                      : No

    Audio #1
    ID                          : 2
    Format                      : E-AC-3
    Format/Info                 : Enhanced AC-3
    Commercial name             : Dolby Digital Plus
    Codec ID                    : A_EAC3
    Duration                    : 1 h 56 min
    Bit rate mode               : Constant
    Bit rate                    : 224 kb/s
    Channel(s)                  : 2 channels
    Channel layout              : L R
    Sampling rate               : 48.0 kHz
    Frame rate                  : 31.250 FPS (1536 SPF)
    Compression mode            : Lossy
    Delay relative to video     : 1 s 300 ms
    Stream size                 : 187 MiB (1%)
    Language                    : Spanish
    Service kind                : Complete Main
    Default                     : Yes
    Forced                      : No

    Audio #2
    ID                          : 3
    Format                      : AC-3
    Format/Info                 : Audio Coding 3
    Commercial name             : Dolby Digital
    Codec ID                    : A_AC3
    Duration                    : 1 h 56 min
    Bit rate mode               : Constant
    Bit rate                    : 256 kb/s
    Channel(s)                  : 2 channels
    Channel layout              : L R
    Sampling rate               : 48.0 kHz
    Frame rate                  : 31.250 FPS (1536 SPF)
    Compression mode            : Lossy
    Delay relative to video     : 1 s 300 ms
    Stream size                 : 214 MiB (1%)
    Language                    : Spanish
    Service kind                : Complete Main
    Default                     : No
    Forced                      : No

    Audio #3
    ID                          : 4
    Format                      : DTS XLL
    Format/Info                 : Digital Theater Systems
    Commercial name             : DTS-HD Master Audio
    Codec ID                    : A_DTS
    Duration                    : 1 h 56 min
    Bit rate mode               : Variable
    Bit rate                    : 3 809 kb/s
    Channel(s)                  : 6 channels
    Channel layout              : C L R Ls Rs LFE
    Sampling rate               : 48.0 kHz
    Frame rate                  : 93.750 FPS (512 SPF)
    Bit depth                   : 24 bits
    Compression mode            : Lossless
    Stream size                 : 3.11 GiB (11%)
    Language                    : English
    Default                     : No
    Forced                      : No

    Text #1
    ID                          : 5
    Format                      : UTF-8
    Codec ID                    : S_TEXT/UTF8
    Codec ID/Info               : UTF-8 Plain Text
    Duration                    : 1 h 41 min
    Bit rate                    : 0 b/s
    Count of elements           : 14
    Stream size                 : 409 Bytes (0%)
    Language                    : Spanish
    Default                     : Yes
    Forced                      : No

    Text #2
    ID                          : 6
    Format                      : UTF-8
    Codec ID                    : S_TEXT/UTF8
    Codec ID/Info               : UTF-8 Plain Text
    Duration                    : 1 h 51 min
    Bit rate                    : 57 b/s
    Count of elements           : 1373
    Stream size                 : 46.9 KiB (0%)
    Language                    : Spanish
    Default                     : No
    Forced                      : No

    Text #3
    ID                          : 7
    Format                      : PGS
    Muxing mode                 : zlib
    Codec ID                    : S_HDMV/PGS
    Codec ID/Info               : Picture based subtitle format used on BDs/HD-DVDs
    Duration                    : 1 h 55 min
    Bit rate                    : 27.9 kb/s
    Count of elements           : 1952
    Stream size                 : 23.1 MiB (0%)
    Language                    : Spanish
    Default                     : No
    Forced                      : No

    Menu
    00:00:00.000                : en:Opening Credits
    00:02:41.620                : en:Happy Birthday
    00:06:18.211                : en:Trouble In Paradise
    00:12:11.731                : en:Here Comes The Bride
    00:20:26.600                : en:Royal Oats
    00:22:41.151                : en:America
    00:26:28.420                : en:Meeting The Locals
    00:32:06.174                : en:Barber Shop Quartet
    00:34:18.223                : en:In Search Of A Queen
    00:37:22.782                : en:Black Awareness Week
    00:44:09.897                : en:Working With The Natives
    00:50:15.346                : en:The Way To A Woman's Heart
    00:56:23.922                : en:Take Me Out To The Ball Game
    00:59:32.736                : en:Mopping Up
    01:02:47.013                : en:Engagement Party?
    01:10:28.641                : en:Humble Abode
    01:14:38.724                : en:To Be Loved...
    01:22:03.919                : en:Riches To Rags
    01:24:06.416                : en:A King In New York
    01:31:42.956                : en:Hospitality
    01:35:44.280                : en:The Truth
    01:41:25.079                : en:Take A Chance
    01:46:31.135                : en:Here Comes The Bride - Take 2
    01:50:44.471                : en:End Credits

  • Peso: 28.7 GiB

Sinopsis

El principe Akeen del africano reino de Zamunda cumple veintiún años. Su futura esposa ya ha sido elegida por el rey y es presentada en la corte. Akeen decide ir a Norteamérica para buscar novia de su gusto. Un barrio marginal de Nueva York será su morada.

Latino: E-AC3 + AC3 2.0  –  Ingles: DTS-HD MA 5.1

Ficha técnica

Video trailer de la película

Enlaces de descarga

Rip de Bluray

Descargar Coming to America (1988) REMUX 1080p Latino – CMHDD


Aportes de DPeliculasHDmega la pass es:dpeliculashdmega.org Aportes de CinemaniaHD la pass es:cinemaniahdd.com Aportes recientes:cinemaniahdd.net
Guardado en : Comedia , Romance

Películas relacionadas

descargar Coming to America (1988) REMUX 1080p Latino – CMHDD Full 1080p 1080p gratis, Coming to America (1988) REMUX 1080p Latino – CMHDD Full 1080p mega 1 link, Coming to America (1988) REMUX 1080p Latino – CMHDD Full 1080p pelicula completa, descargar Coming to America (1988) REMUX 1080p Latino – CMHDD Full 1080p gratis en mega.

Coming to America (1988) REMUX 1080p Latino – CMHDD pelicula full hd, Coming to America (1988) REMUX 1080p Latino – CMHDD mega latino, Coming to America (1988) REMUX 1080p Latino – CMHDD 4k latino, Coming to America (1988) REMUX 1080p Latino – CMHDD pelicula completa, Coming to America (1988) REMUX 1080p Latino – CMHDD descargar gratis, descargar Coming to America (1988) REMUX 1080p Latino – CMHDD pelicula latino, Coming to America (1988) REMUX 1080p Latino – CMHDD 1 link mega, Coming to America (1988) REMUX 1080p Latino – CMHDD 1 link google drive, Coming to America (1988) REMUX 1080p Latino – CMHDD hd 1080p latino.