Come True (2020) REMUX 1080p Latino

38 vistas
1 estrella2 estrellas3 estrellas4 estrellas5 estrellas (2 votos, promedio: 5,00 de 5)
Cargando...

Información de Come True (2020) REMUX 1080p Latino

Datos de la película

  • Calidad: Full 1080p
  • Audio: Se especifica abajo de la Sinopsis
  • Subtitulos: Español Latino SRT- FORZADOS SRT
  • Resolución: 1920x1080
  • Formato: MKV
  • Codec: H.264
  • Encoder: cinemaniahdd
  • Mediainfo: Clic para Mostrar Datos Ver
  • Come True (2020) REMUX 1080p Latino [CNMNHDD].mkv
    Format                      : Matroska
    Format version              : Version 4
    File size                   : 29.0 GiB
    Duration                    : 1 h 45 min
    Overall bit rate mode       : Variable
    Overall bit rate            : 39.5 Mb/s
    Movie name                  : Come True (2020) REMUX - CinemaniaHDD.Net
    Encoded date                : UTC 2021-04-29 02:17:54
    Writing application         : mkvmerge v56.1.0 ('My Friend') 64-bit
    Writing library             : libebml v1.4.2 + libmatroska v1.6.4

    Video
    ID                          : 1
    ID in the original source m : 4113 (0x1011)
    Format                      : AVC
    Format/Info                 : Advanced Video Codec
    Format profile              : High@L4.1
    Format settings             : CABAC / 4 Ref Frames
    Format settings, CABAC      : Yes
    Format settings, Reference  : 4 frames
    Codec ID                    : V_MPEG4/ISO/AVC
    Duration                    : 1 h 45 min
    Bit rate mode               : Variable
    Bit rate                    : 33.3 Mb/s
    Maximum bit rate            : 38.0 Mb/s
    Width                       : 1 920 pixels
    Height                      : 1 080 pixels
    Display aspect ratio        : 16:9
    Frame rate mode             : Constant
    Frame rate                  : 23.976 (24000/1001) FPS
    Color space                 : YUV
    Chroma subsampling          : 4:2:0
    Bit depth                   : 8 bits
    Scan type                   : Progressive
    Bits/(Pixel*Frame)          : 0.670
    Stream size                 : 24.5 GiB (84%)
    Title                       : CinemaniaHDD
    Language                    : English
    Default                     : No
    Forced                      : No
    Original source medium      : Blu-ray

    Audio #1
    ID                          : 2
    Format                      : AC-3
    Format/Info                 : Audio Coding 3
    Commercial name             : Dolby Digital
    Codec ID                    : A_AC3
    Duration                    : 1 h 45 min
    Bit rate mode               : Constant
    Bit rate                    : 640 kb/s
    Channel(s)                  : 6 channels
    Channel layout              : L R C LFE Ls Rs
    Sampling rate               : 48.0 kHz
    Frame rate                  : 31.250 FPS (1536 SPF)
    Compression mode            : Lossy
    Stream size                 : 482 MiB (2%)
    Title                       : Español Latino AC3 [CinemaniaHDD]
    Language                    : Spanish
    Service kind                : Complete Main
    Default                     : Yes
    Forced                      : No

    Audio #2
    ID                          : 3
    Format                      : E-AC-3
    Format/Info                 : Enhanced AC-3
    Commercial name             : Dolby Digital Plus
    Codec ID                    : A_EAC3
    Duration                    : 1 h 45 min
    Bit rate mode               : Constant
    Bit rate                    : 640 kb/s
    Channel(s)                  : 6 channels
    Channel layout              : L R C LFE Ls Rs
    Sampling rate               : 48.0 kHz
    Frame rate                  : 31.250 FPS (1536 SPF)
    Compression mode            : Lossy
    Stream size                 : 482 MiB (2%)
    Title                       : Español Latino E-AC3 [CinemaniaHDD]
    Language                    : Spanish
    Service kind                : Complete Main
    Default                     : No
    Forced                      : No

    Audio #3
    ID                          : 4
    ID in the original source m : 4353 (0x1101)
    Format                      : DTS XLL
    Format/Info                 : Digital Theater Systems
    Commercial name             : DTS-HD Master Audio
    Codec ID                    : A_DTS
    Duration                    : 1 h 45 min
    Bit rate mode               : Variable
    Bit rate                    : 3 524 kb/s
    Channel(s)                  : 6 channels
    Channel layout              : C L R Ls Rs LFE
    Sampling rate               : 48.0 kHz
    Frame rate                  : 93.750 FPS (512 SPF)
    Bit depth                   : 24 bits
    Compression mode            : Lossless
    Stream size                 : 2.59 GiB (9%)
    Title                       : Ingles DTS-HD MA [CinemaniaHDD]
    Language                    : English
    Default                     : No
    Forced                      : No
    Original source medium      : Blu-ray

    Audio #4
    ID                          : 5
    Format                      : DTS
    Format/Info                 : Digital Theater Systems
    Codec ID                    : A_DTS
    Duration                    : 1 h 45 min
    Bit rate mode               : Constant
    Bit rate                    : 768 kb/s
    Channel(s)                  : 6 channels
    Channel layout              : C L R Ls Rs LFE
    Sampling rate               : 48.0 kHz
    Frame rate                  : 93.750 FPS (512 SPF)
    Bit depth                   : 24 bits
    Compression mode            : Lossy
    Stream size                 : 578 MiB (2%)
    Title                       : Ingles DTS-Core [CinemaniaHDD]
    Language                    : English
    Default                     : No
    Forced                      : No

    Audio #5
    ID                          : 6
    Format                      : AC-3
    Format/Info                 : Audio Coding 3
    Commercial name             : Dolby Digital
    Codec ID                    : A_AC3
    Duration                    : 1 h 45 min
    Bit rate mode               : Constant
    Bit rate                    : 640 kb/s
    Channel(s)                  : 6 channels
    Channel layout              : L R C LFE Ls Rs
    Sampling rate               : 48.0 kHz
    Frame rate                  : 31.250 FPS (1536 SPF)
    Compression mode            : Lossy
    Stream size                 : 482 MiB (2%)
    Title                       : Ingles AC3 [CinemaniaHDD]
    Language                    : English
    Service kind                : Complete Main
    Default                     : No
    Forced                      : No

    Text #1
    ID                          : 7
    Format                      : UTF-8
    Codec ID                    : S_TEXT/UTF8
    Codec ID/Info               : UTF-8 Plain Text
    Duration                    : 1 h 38 min
    Bit rate                    : 0 b/s
    Count of elements           : 17
    Stream size                 : 481 Bytes (0%)
    Title                       : Forzados [CinemaniaHDD]
    Language                    : Spanish
    Default                     : Yes
    Forced                      : Yes

    Text #2
    ID                          : 8
    Format                      : UTF-8
    Codec ID                    : S_TEXT/UTF8
    Codec ID/Info               : UTF-8 Plain Text
    Duration                    : 1 h 38 min
    Bit rate                    : 19 b/s
    Count of elements           : 511
    Stream size                 : 14.2 KiB (0%)
    Title                       : Español Latino [CinemaniaHDD]
    Language                    : Spanish
    Default                     : No
    Forced                      : No

    Text #3
    ID                          : 9
    Format                      : UTF-8
    Codec ID                    : S_TEXT/UTF8
    Codec ID/Info               : UTF-8 Plain Text
    Duration                    : 1 h 38 min
    Bit rate                    : 24 b/s
    Count of elements           : 666
    Stream size                 : 17.4 KiB (0%)
    Title                       : Ingles [CinemaniaHDD]
    Language                    : English
    Default                     : No
    Forced                      : No

    Menu
    00:00:00.000                : Chapter 01
    00:06:01.027                : Chapter 02
    00:13:51.664                : Chapter 03
    00:24:34.097                : Chapter 04
    00:37:18.986                : Chapter 05
    00:46:50.474                : Chapter 06
    00:55:42.714                : Chapter 07
    01:02:43.301                : Chapter 08
    01:11:58.939                : Chapter 09
    01:20:21.650                : Chapter 10
    01:28:32.390                : Chapter 11
    01:38:26.734                : Chapter 12

     

  • Peso: 29.0 GiB

Sinopsis

Sarah es una estudiante adolescente que toca fondo anímicamente tras huir de casa. Una vez sola, no tiene a nadie que le ayude a superar sus recurrentes pesadillas. Su única oportunidad de sobrevivir pasa por participar en un estudio universitario en la que entabla amistad con el científico supervisor, llamado Jeremy. Sin embargo, hay algo extraño en el procedimiento al que se somete, y con el paso de los días las pesadillas de Sarah empiezan a empeorar.

Español Latino E-AC3 5.1 + AC3 5.1 AMZN – Ingles DTS-HD 5.1 + DTS Core BD

Ficha técnica

Video trailer de la película

Enlaces de descarga

Rip de Bluray

Descargar Come True (2020) REMUX 1080p Latino


Aportes de DPeliculasHDmega la pass es:dpeliculashdmega.org Aportes de CinemaniaHD la pass es:cinemaniahdd.com
Guardado en : Ciencia ficción , Remux , Terror

Películas relacionadas

  • Nadie (2021) REMUX 1080p Latino

    Nadie (2021) REMUX 1080p Latino

    2021
    Nadie (2021) REMUX 1080p Latino

    5.0 1h 32m 2021

    Descargar Nadie (2021) REMUX 1080p Latino. Hutch Mansell, un padre de familia que aguanta con resignación...

    Director: Ilya Naishuller

    Género: Acción

    Actores: Yulia Guzhva

  • Annabelle 3: Viene A Casa (2019) Full HD 1080p Latino

    Annabelle 3: Viene A Casa (2019) Full HD 1080p Latino

    2019
    Annabelle 3: Viene A Casa (2019) Full HD 1080p Latino

    5.0 1h 46m 2019

    Descargar Annabelle 3: Viene A Casa (2019) Full HD 1080p Latino. Annabelle Vuelve a Casa es la tercera...

    Director: Gary Dauberman

    Género: FULL 1080p Plateadas

    Actores: Vera Farmiga

  • Annabelle 3: Viene A Casa (2019) REMUX 1080p Latino

    Annabelle 3: Viene A Casa (2019) REMUX 1080p Latino

    2019
    Annabelle 3: Viene A Casa (2019) REMUX 1080p Latino

    5.0 1h 46m 2019

    Descargar Annabelle 3 Vuelve a casa (2019) REMUX 1080p Latino. Annabelle Vuelve a Casa es la tercera...

    Director: Gary Dauberman

    Género: Misterio

    Actores: Vera Farmiga

  • Annabelle 2: La Creación (2017) Full HD 1080p Latino

    Annabelle 2: La Creación (2017) Full HD 1080p Latino

    2017
    Annabelle 2: La Creación (2017) Full HD 1080p Latino

    4.7 1 h 49 min 2017

    Descargar Annabelle 2: La Creación (2017) Full HD 1080p Latino. Década de los 50. Algunos años después...

    Director: Jan McWilliams

    Género: FULL 1080p Plateadas

    Actores: Ward Horton

  • Annabelle 2: La Creación (2017) REMUX 1080p Latino

    Annabelle 2: La Creación (2017) REMUX 1080p Latino

    2017
    Annabelle 2: La Creación (2017) REMUX 1080p Latino

    3.0 1h 49m 2017

    Descargar Annabelle 2: La Creación (2017) REMUX 1080p Latino. Varios años después del trágico fallecimiento...

    Director: Jan McWilliams

    Género: Misterio

    Actores: Ward Horton

Come True (2020) REMUX 1080p Latino pelicula full hd, Come True (2020) REMUX 1080p Latino mega latino, Come True (2020) REMUX 1080p Latino 4k latino, Come True (2020) REMUX 1080p Latino pelicula completa, Come True (2020) REMUX 1080p Latino descargar gratis, descargar Come True (2020) REMUX 1080p Latino pelicula latino, Come True (2020) REMUX 1080p Latino 1 link mega, Come True (2020) REMUX 1080p Latino 1 link google drive, Come True (2020) REMUX 1080p Latino hd 1080p latino.
Comentarios 0