×

¿Problemas para descargar con Mozilla, EDGE? Deshabilita la opción "Abrir vinculos en una pestaña nueva" tal como lo muestra ésta imagen.

Come Play (2020) HD 1080p Latino

335 vistas

Información de Come Play (2020) HD 1080p Latino

Datos de la película

  • Calidad: 1080p
  • Audio: Español Latino AC3 5.1 BLURAY - Ingles AC3 5.1 BLURAY
  • Subtitulos: Español Latino SRT - Ingles SRT
  • Resolución: 1920x804p
  • Formato: MKV
  • Codec: H.264
  • Encoder: Melkor
  • Mediainfo: Clic para Mostrar Datos Ver
  • Come Play (2020) HD 1080p Latino.mkv
    Format                      : Matroska
    Format version              : Version 4
    File size                   : 3.05 GiB
    Duration                    : 1 h 36 min
    Overall bit rate            : 4 523 kb/s
    Movie name                  : Come Play (2020) CinemaniaHDD.Net
    Encoded date                : UTC 2021-01-18 08:05:47
    Writing application         : mkvmerge v51.0.0 ('I Wish') 64-bit
    Writing library             : libebml v1.4.0 + libmatroska v1.6.2
    Attachments                 : CINEMANIAHD.png

    Video
    ID                          : 1
    Format                      : AVC
    Format/Info                 : Advanced Video Codec
    Format profile              : High@L4.1
    Format settings             : CABAC / 5 Ref Frames
    Format settings, CABAC      : Yes
    Format settings, Reference  : 5 frames
    Codec ID                    : V_MPEG4/ISO/AVC
    Duration                    : 1 h 36 min
    Bit rate                    : 3 500 kb/s
    Width                       : 1 920 pixels
    Height                      : 804 pixels
    Display aspect ratio        : 2.40:1
    Frame rate mode             : Constant
    Frame rate                  : 23.976 (24000/1001) FPS
    Color space                 : YUV
    Chroma subsampling          : 4:2:0
    Bit depth                   : 8 bits
    Scan type                   : Progressive
    Bits/(Pixel*Frame)          : 0.095
    Stream size                 : 2.31 GiB (76%)
    Title                       : HD1080p [CinemaniaHDD]
    Writing library             : x264 core 157 r2935 545de2f
    Encoding settings           : cabac=1 / ref=5 / deblock=1:-1:-1 / analyse=0x3:0x113 / me=hex / subme=8 / psy=1 / psy_rd=1.00:0.15 / mixed_ref=1 / me_range=16 / chroma_me=1 / trellis=2 / 8x8dct=1 / cqm=0 / deadzone=21,11 / fast_pskip=1 / chroma_qp_offset=-3 / threads=24 / lookahead_threads=4 / sliced_threads=0 / nr=0 / decimate=1 / interlaced=0 / bluray_compat=0 / constrained_intra=0 / bframes=3 / b_pyramid=2 / b_adapt=1 / b_bias=0 / direct=3 / weightb=1 / open_gop=0 / weightp=2 / keyint=240 / keyint_min=24 / scenecut=40 / intra_refresh=0 / rc_lookahead=50 / rc=abr / mbtree=1 / bitrate=3500 / ratetol=1.0 / qcomp=0.60 / qpmin=0 / qpmax=69 / qpstep=4 / vbv_maxrate=62500 / vbv_bufsize=78125 / nal_hrd=none / filler=0 / ip_ratio=1.40 / aq=1:1.00
    Default                     : Yes
    Forced                      : Yes
    Color range                 : Limited
    Color primaries             : BT.709
    Transfer characteristics    : BT.709
    Matrix coefficients         : BT.709

    Audio #1
    ID                          : 2
    Format                      : AC-3
    Format/Info                 : Audio Coding 3
    Commercial name             : Dolby Digital
    Codec ID                    : A_AC3
    Duration                    : 1 h 36 min
    Bit rate mode               : Constant
    Bit rate                    : 640 kb/s
    Channel(s)                  : 6 channels
    Channel layout              : L R C LFE Ls Rs
    Sampling rate               : 48.0 kHz
    Frame rate                  : 31.250 FPS (1536 SPF)
    Compression mode            : Lossy
    Delay relative to video     : -5 ms
    Stream size                 : 442 MiB (14%)
    Title                       : Español Latino [CinemaniaHDD]
    Language                    : Spanish
    Service kind                : Complete Main
    Default                     : Yes
    Forced                      : Yes

    Audio #2
    ID                          : 3
    Format                      : AC-3
    Format/Info                 : Audio Coding 3
    Commercial name             : Dolby Digital
    Codec ID                    : A_AC3
    Duration                    : 1 h 36 min
    Bit rate mode               : Constant
    Bit rate                    : 448 kb/s
    Channel(s)                  : 6 channels
    Channel layout              : L R C LFE Ls Rs
    Sampling rate               : 48.0 kHz
    Frame rate                  : 31.250 FPS (1536 SPF)
    Compression mode            : Lossy
    Delay relative to video     : -5 ms
    Stream size                 : 309 MiB (10%)
    Title                       : Ingles [CinemaniaHDD]
    Language                    : English
    Service kind                : Complete Main
    Default                     : No
    Forced                      : No

    Text #1
    ID                          : 4
    Format                      : UTF-8
    Codec ID                    : S_TEXT/UTF8
    Codec ID/Info               : UTF-8 Plain Text
    Duration                    : 1 h 26 min
    Bit rate                    : 0 b/s
    Count of elements           : 8
    Stream size                 : 217 Bytes (0%)
    Title                       : Forzados-SRT [CinemaniaHDD]
    Language                    : Spanish
    Default                     : Yes
    Forced                      : Yes

    Text #2
    ID                          : 5
    Format                      : UTF-8
    Codec ID                    : S_TEXT/UTF8
    Codec ID/Info               : UTF-8 Plain Text
    Duration                    : 1 h 31 min
    Bit rate                    : 31 b/s
    Count of elements           : 759
    Stream size                 : 21.4 KiB (0%)
    Title                       : Español-SRT [CinemaniaHDD]
    Language                    : Spanish
    Default                     : No
    Forced                      : No

    Text #3
    ID                          : 6
    Format                      : UTF-8
    Codec ID                    : S_TEXT/UTF8
    Codec ID/Info               : UTF-8 Plain Text
    Duration                    : 1 h 31 min
    Bit rate                    : 31 b/s
    Count of elements           : 870
    Stream size                 : 21.3 KiB (0%)
    Title                       : Ingles-SRT [CinemaniaHDD]
    Language                    : English
    Default                     : No
    Forced                      : No

    Menu
    00:00:00.000                : en:Chapter 01
    00:03:50.855                : en:Chapter 02
    00:09:51.007                : en:Chapter 03
    00:15:32.222                : en:Chapter 04
    00:18:03.165                : en:Chapter 05
    00:23:24.403                : en:Chapter 06
    00:28:58.027                : en:Chapter 07
    00:37:23.241                : en:Chapter 08
    00:43:15.843                : en:Chapter 09
    00:48:22.941                : en:Chapter 10
    00:50:11.216                : en:Chapter 11
    00:56:25.507                : en:Chapter 12
    00:58:37.764                : en:Chapter 13
    01:02:21.028                : en:Chapter 14
    01:07:30.171                : en:Chapter 15
    01:12:48.739                : en:Chapter 16
    01:20:33.495                : en:Chapter 17
    01:27:21.444                : en:Chapter 18
    01:29:42.418                : en:Chapter 19
    01:32:22.203                : en:Chapter 20

  • Peso: 3.05 GiB

Sinopsis

Descargar Come Play (2020) HD 1080p Latino. Un niño problemático y su familia se convierten en el objetivo de un monstruo que se materializa a través de objetos electrónicos, tales como teléfonos móviles y tablets. Remake del cortometraje «Larry», creado por Jacob Chase en 2017.

Ficha técnica

Video trailer de la película

Enlaces de descarga

Rip de Bluray

Descargar Come Play (2020) HD 1080p Latino




Aportes de DPeliculasHDmega la pass es:dpeliculashdmega.org Aportes de CinemaniaHD la pass es:cinemaniahdd.com
Guardado en : Terror , HD 1080p , Misterio

Películas relacionadas

  • Super… ¿quién? (2021) HD 1080p Latino

    Super… ¿quién? (2021) HD 1080p Latino

    2022
    Super… ¿quién? (2021) HD 1080p Latino

    1h 22m 2022

    Descargar Super... ¿quién? (2021) HD 1080p Latino. Cedric (Philippe Lacheau) intenta ganarse la vida...

    Director: Philippe Lacheau

    Género: Acción

    Actores: Yves Yan

  • Observada (2022) HD 1080p Latino

    Observada (2022) HD 1080p Latino

    2022
    Observada (2022) HD 1080p Latino

    1h 35m 2022

    Descargar Observada (2022) HD 1080p Latino. Una joven se muda a un nuevo apartamento con su prometido...

    Director: Chloe Okuno

    Género: HD 1080p

    Actores: Tudor Petruț

  • Observada (2022) PLACEBO Full HD 1080p Latino

    Observada (2022) PLACEBO Full HD 1080p Latino

    2022
    Observada (2022) PLACEBO Full HD 1080p Latino

    1h 35m 2022

    Descargar Observada (2022) PLACEBO Full HD 1080p Latino. Una joven se muda a un nuevo apartamento con...

    Director: Chloe Okuno

    Género: FULL 1080p Plateadas

    Actores: Tudor Petruț

  • Observada (2022) REMUX 1080p Latino

    Observada (2022) REMUX 1080p Latino

    2022
    Observada (2022) REMUX 1080p Latino

    1h 35m 2022

    Descargar Observada (2022) REMUX 1080p Latino. Una joven se muda a un nuevo apartamento con su prometido...

    Director: Chloe Okuno

    Género: Misterio

    Actores: Tudor Petruț

  • Wifelike (2022) WEB-DL 1080p Latino

    Wifelike (2022) WEB-DL 1080p Latino

    2022
    Wifelike (2022) WEB-DL 1080p Latino

    1h 46m 2022

    Descargar Wifelike (2022) WEB-DL 1080p Latino. La humana artificial Meredith es asignada como acompañante...

    Director: James Bird

    Género: Ciencia ficción

    Actores: Stephen Lobo

descargar Come Play (2020) HD 1080p Latino 1080p 1080p gratis, Come Play (2020) HD 1080p Latino 1080p mega 1 link, Come Play (2020) HD 1080p Latino 1080p pelicula completa, descargar Come Play (2020) HD 1080p Latino 1080p gratis en mega.

Come Play (2020) HD 1080p Latino pelicula full hd, Come Play (2020) HD 1080p Latino mega latino, Come Play (2020) HD 1080p Latino 4k latino, Come Play (2020) HD 1080p Latino pelicula completa, Come Play (2020) HD 1080p Latino descargar gratis, descargar Come Play (2020) HD 1080p Latino pelicula latino, Come Play (2020) HD 1080p Latino 1 link mega, Come Play (2020) HD 1080p Latino 1 link google drive, Come Play (2020) HD 1080p Latino hd 1080p latino.
Comentarios 0