Comando (1985) Full 1080p Latino

1.910 vistas
1 estrella2 estrellas3 estrellas4 estrellas5 estrellas (8 votos, promedio: 3,38 de 5)
Cargando…

Información de Comando (1985) Full 1080p Latino

Datos de la película

  • Calidad: Full 1080p
  • Audio: Español Latino AC3 1.0 BLURAY - Ingles DTS 5.1 BLURAY
  • Subtitulos: Español Latino PGS - Ingles PGS
  • Resolución: 1920x1080p
  • Formato: MKV
  • Codec: H.264
  • Encoder: Dracarys
  • Mediainfo: Clic para Mostrar Datos Ver
  • Format                                   : Matroska
    Format version                           : Version 4 / Version 2
    File size                                : 10.1 GiB
    Duration                                 : 1 h 31 min
    Overall bit rate                         : 15.7 Mb/s
    Movie name                               : CinemaniaHDD.net
    Encoded date                             : UTC 2018-08-02 05:22:05 / UTC 2018-07-27T09:07:04Z
    Writing application                      : mkvmerge v15.0.0 ('Duel with the Devil') 64-bit
    Writing library                          : libebml v1.3.5 + libmatroska v1.4.5 / Lavf57.7.2

    Video
    ID                                       : 1
    Format                                   : AVC
    Format/Info                              : Advanced Video Codec
    Format profile                           : High@L4.1
    Format settings                          : CABAC / 4 Ref Frames
    Format settings, CABAC                   : Yes
    Format settings, RefFrames               : 4 frames
    Codec ID                                 : V_MPEG4/ISO/AVC
    Duration                                 : 1 h 31 min
    Bit rate                                 : 13.7 Mb/s
    Width                                    : 1 920 pixels
    Height                                   : 1 080 pixels
    Display aspect ratio                     : 16:9
    Frame rate mode                          : Constant
    Frame rate                               : 23.976 (24000/1001) FPS
    Color space                              : YUV
    Chroma subsampling                       : 4:2:0
    Bit depth                                : 8 bits
    Scan type                                : Progressive
    Bits/(Pixel*Frame)                       : 0.275
    Stream size                              : 8.77 GiB (87%)
    Title                                    : Comando (1985) Full 1080p Latino
    Writing library                          : x264 core 148 r2708 86b7198
    Encoding settings                        : cabac=1 / ref=4 / deblock=1:0:0 / analyse=0x3:0x133 / me=esa / subme=10 / psy=1 / psy_rd=1.00:0.00 / mixed_ref=1 / me_range=24 / chroma_me=1 / trellis=2 / 8x8dct=1 / cqm=0 / deadzone=21,11 / fast_pskip=1 / chroma_qp_offset=-2 / threads=34 / lookahead_threads=5 / sliced_threads=0 / nr=0 / decimate=1 / interlaced=0 / bluray_compat=0 / constrained_intra=0 / bframes=8 / b_pyramid=2 / b_adapt=2 / b_bias=0 / direct=3 / weightb=1 / open_gop=0 / weightp=2 / keyint=240 / keyint_min=24 / scenecut=40 / intra_refresh=0 / rc_lookahead=60 / rc=crf / mbtree=1 / crf=20.0 / qcomp=0.60 / qpmin=0 / qpmax=69 / qpstep=4 / vbv_maxrate=62500 / vbv_bufsize=78125 / crf_max=0.0 / nal_hrd=none / filler=0 / ip_ratio=1.40 / aq=1:1.00
    Language                                 : English
    Default                                  : Yes
    Forced                                   : No
    Color range                              : Limited
    Color primaries                          : BT.709
    Transfer characteristics                 : BT.709
    Matrix coefficients                      : BT.709
    Statistics Tags Issue                    : mkvmerge v15.0.0 ('Duel with the Devil') 64-bit 2018-08-02 05:22:05 / mkvmerge v15.0.0 ('Duel with the Devil') 64-bit 2018-08-02 05:22:05 / UTC 2018-07-27T09:07:04Z
    FromStats_BitRate                        : 13972921
    FromStats_Duration                       : 01:31:50.005000000
    FromStats_FrameCount                     : 132108
    FromStats_StreamSize                     : 9623858515

    Audio #1
    ID                                       : 2
    Format                                   : AC-3
    Format/Info                              : Audio Coding 3
    Format settings, Endianness              : Big
    Codec ID                                 : A_AC3
    Duration                                 : 1 h 31 min
    Bit rate mode                            : Constant
    Bit rate                                 : 192 kb/s
    Channel(s)                               : 1 channel
    Channel positions                        : Front: C
    Sampling rate                            : 48.0 kHz
    Frame rate                               : 31.250 FPS (1536 SPF)
    Bit depth                                : 16 bits
    Compression mode                         : Lossy
    Stream size                              : 126 MiB (1%)
    Language                                 : Spanish
    Service kind                             : Complete Main
    Default                                  : Yes
    Forced                                   : No
    Statistics Tags Issue                    : mkvmerge v15.0.0 ('Duel with the Devil') 64-bit 2018-08-02 05:22:05 / mkvmerge v15.0.0 ('Duel with the Devil') 64-bit 2018-08-02 05:22:05 / UTC 2018-07-27T09:07:04Z
    FromStats_BitRate                        : 192000
    FromStats_Duration                       : 01:31:50.048000000
    FromStats_FrameCount                     : 172189
    FromStats_StreamSize                     : 132241152

    Audio #2
    ID                                       : 3
    Format                                   : DTS
    Format/Info                              : Digital Theater Systems
    Mode                                     : 16
    Format settings, Endianness              : Big
    Codec ID                                 : A_DTS
    Duration                                 : 1 h 31 min
    Bit rate mode                            : Constant
    Bit rate                                 : 1 509 kb/s
    Channel(s)                               : 6 channels
    Channel positions                        : Front: L C R, Side: L R, LFE
    Sampling rate                            : 48.0 kHz
    Frame rate                               : 93.750 FPS (512 SPF)
    Bit depth                                : 24 bits
    Compression mode                         : Lossy
    Stream size                              : 991 MiB (10%)
    Language                                 : English
    Default                                  : No
    Forced                                   : No
    Statistics Tags Issue                    : mkvmerge v15.0.0 ('Duel with the Devil') 64-bit 2018-08-02 05:22:05 / mkvmerge v15.0.0 ('Duel with the Devil') 64-bit 2018-08-02 05:22:05 / UTC 2018-07-27T09:07:04Z
    FromStats_BitRate                        : 1509000
    FromStats_Duration                       : 01:31:50.005000000
    FromStats_FrameCount                     : 516563
    FromStats_StreamSize                     : 1039324756

    Text #1
    ID                                       : 4
    Format                                   : PGS
    Muxing mode                              : zlib
    Codec ID                                 : S_HDMV/PGS
    Codec ID/Info                            : Picture based subtitle format used on BDs/HD-DVDs
    Language                                 : English
    Default                                  : No
    Forced                                   : No
    Statistics Tags Issue                    : mkvmerge v15.0.0 ('Duel with the Devil') 64-bit 2018-08-02 05:22:05 / mkvmerge v15.0.0 ('Duel with the Devil') 64-bit 2018-08-02 05:22:05 / UTC 2018-07-27T09:07:04Z
    FromStats_BitRate                        : 20140
    FromStats_Duration                       : 01:30:43.189000000
    FromStats_FrameCount                     : 1294
    FromStats_StreamSize                     : 13703752

    Text #2
    ID                                       : 5
    Format                                   : PGS
    Muxing mode                              : zlib
    Codec ID                                 : S_HDMV/PGS
    Codec ID/Info                            : Picture based subtitle format used on BDs/HD-DVDs
    Language                                 : Spanish
    Default                                  : No
    Forced                                   : No
    Statistics Tags Issue                    : mkvmerge v15.0.0 ('Duel with the Devil') 64-bit 2018-08-02 05:22:05 / mkvmerge v15.0.0 ('Duel with the Devil') 64-bit 2018-08-02 05:22:05 / UTC 2018-07-27T09:07:04Z
    FromStats_BitRate                        : 15721
    FromStats_Duration                       : 01:26:56.629000000
    FromStats_FrameCount                     : 868
    FromStats_StreamSize                     : 10251404

    Menu
    00:00:00.000                             : :Chapter 1
    00:02:13.967                             : :Chapter 2
    00:03:15.445                             : :Chapter 3
    00:05:32.791                             : :Chapter 4
    00:08:15.078                             : :Chapter 5
    00:11:25.351                             : :Chapter 6
    00:13:22.093                             : :Chapter 7
    00:16:34.702                             : :Chapter 8
    00:19:15.780                             : :Chapter 9
    00:21:53.562                             : :Chapter 10
    00:26:56.532                             : :Chapter 11
    00:29:01.448                             : :Chapter 12
    00:32:46.214                             : :Chapter 13
    00:35:51.066                             : :Chapter 14
    00:38:11.247                             : :Chapter 15
    00:45:26.390                             : :Chapter 16
    00:50:42.164                             : :Chapter 17
    00:55:13.060                             : :Chapter 18
    00:57:59.518                             : :Chapter 19
    01:00:41.680                             : :Chapter 20
    01:06:12.552                             : :Chapter 21
    01:08:25.727                             : :Chapter 22
    01:11:49.138                             : :Chapter 23
    01:14:26.212                             : :Chapter 24
    01:19:23.509                             : :Chapter 25
    01:21:23.462                             : :Chapter 26
    01:26:12.668                             : :Chapter 27
    01:28:47.155                             : :Chapter 28

  • Peso: 10.1 GiB

Sinopsis

El coronel John Matrix, experto en artes marciales, es un comando sin igual; sin embargo, debido al número de operaciones especiales en las que ha intervenido, ha sido ‘jubilado’ para protegerlo de quienes desearían vengarse de él. Pero un dictador sudamericano despiadado y vengativo ha logrado localizarle y secuestrar a su hija. Para recuperarla, Matrix deberá volver a Sudamérica con una última misión: acabar con el presidente Velásquez.

Ficha técnica

Video trailer de la película

Enlaces de descarga

Rip de Bluray

Descargar Comando (1985) Full 1080p Latino




Aportes de DPeliculasHDmega la pass es:dpeliculashdmega.org Aportes de CinemaniaHD la pass es:cinemaniahdd.com

Películas relacionadas

  • Matar o morir (2018) 1080p Subtitulado

    2018
    Matar o morir (2018) 1080p Subtitulado

    5.0 1h 41m 2018

    Descargar Matar o morir [Peppermint] (2018) 1080p Subtitulado, Mega, Google Drive. LRiley North (Jennifer...

    Director: Pierre Morel

    Género: Acción

    Actores: YaYa Gosselin

  • Ni en tus sueños (2010) Full 1080p Latino

    2010
    Ni en tus sueños (2010) Full 1080p Latino

    0.0 1h 44m 2010

    Descargar Ni en tus sueños (2010) Full 1080p Latino, Mega, Google Drive. Kirk (Jay Baruchel, "Tropic...

    Director: Richard L. Fox

    Género: Comedia

    Actores: Yan Xi

  • La Chica de La Capa Roja (2011) Full 1080p Latino

    2011
    La Chica de La Capa Roja (2011) Full 1080p Latino

    4.7 1h 40m 2011

    Descargar La Chica de La Capa Roja (2011) Full 1080p Latino, Mega, Google Drive. La joven Valerie se...

    Director: Kimi Webber

    Género: Fantasía

    Actores: Virginia Madsen

  • La Chica de La Capa Roja (2011) 1080p Latino

    2011
    La Chica de La Capa Roja (2011) 1080p Latino

    0.0 1h 40m 2011

    Descargar La Chica de La Capa Roja (2011) 1080p Latino, Mega, Google Drive. La joven Valerie se encuentra...

    Director: Kimi Webber

    Género: Fantasía

    Actores: Virginia Madsen

Comentarios 0