×

¿Problemas para descargar con Mozilla, EDGE? Deshabilita la opción "Abrir vinculos en una pestaña nueva" tal como lo muestra ésta imagen.

Coma (2019) REMUX 1080p SUB – CMHDD

277 vistas

Información de Coma (2019) REMUX 1080p SUB – CMHDD

Datos de la película

  • Calidad: Full 1080p
  • Audio: Se especifica abajo de la Sinopsis
  • Subtitulos: Español Latino SRT
  • Resolución: 1920x1080p
  • Formato: MKV
  • Codec: H.264
  • Encoder: Dracarys
  • Mediainfo: Clic para Mostrar Datos Ver
  • Format                      : Matroska
    Format version              : Version 4
    File size                   : 29.0 GiB
    Duration                    : 1 h 51 min
    Overall bit rate mode       : Variable
    Overall bit rate            : 37.4 Mb/s
    Movie name                  : Coma (2019) REMUX 1080p SUB - CMHDD
    Encoded date                : UTC 2023-03-20 05:22:40
    Writing application         : mkvmerge v47.0.0 ('Black Flag') 64-bit
    Writing library             : libebml v1.3.10 + libmatroska v1.5.2
    Cover                       : Yes
    Attachments                 : cover.jpg

    Video
    ID                          : 1
    ID in the original source m : 4113 (0x1011)
    Format                      : AVC
    Format/Info                 : Advanced Video Codec
    Format profile              : High@L4.1
    Format settings             : CABAC / 4 Ref Frames
    Format settings, CABAC      : Yes
    Format settings, Reference  : 4 frames
    Codec ID                    : V_MPEG4/ISO/AVC
    Duration                    : 1 h 51 min
    Bit rate mode               : Variable
    Bit rate                    : 33.5 Mb/s
    Maximum bit rate            : 36.0 Mb/s
    Width                       : 1 920 pixels
    Height                      : 1 080 pixels
    Display aspect ratio        : 16:9
    Frame rate mode             : Variable
    Frame rate                  : 23.313 FPS
    Original frame rate         : 23.976 (24000/1001) FPS
    Color space                 : YUV
    Chroma subsampling          : 4:2:0
    Bit depth                   : 8 bits
    Scan type                   : Progressive
    Bits/(Pixel*Frame)          : 0.693
    Stream size                 : 26.0 GiB (90%)
    Default                     : Yes
    Forced                      : No
    Original source medium      : Blu-ray

    Audio
    ID                          : 2
    ID in the original source m : 4353 (0x1101)
    Format                      : DTS XLL
    Format/Info                 : Digital Theater Systems
    Commercial name             : DTS-HD Master Audio
    Codec ID                    : A_DTS
    Duration                    : 1 h 51 min
    Bit rate mode               : Variable
    Bit rate                    : 3 912 kb/s
    Channel(s)                  : 6 channels
    Channel layout              : C L R Ls Rs LFE
    Sampling rate               : 48.0 kHz
    Frame rate                  : 93.750 FPS (512 SPF)
    Bit depth                   : 24 bits
    Compression mode            : Lossless
    Stream size                 : 3.04 GiB (10%)
    Language                    : Russian
    Default                     : Yes
    Forced                      : No
    Original source medium      : Blu-ray

    Text
    ID                          : 3
    Format                      : UTF-8
    Codec ID                    : S_TEXT/UTF8
    Codec ID/Info               : UTF-8 Plain Text
    Duration                    : 1 h 43 min
    Bit rate                    : 42 b/s
    Frame rate                  : 0.165 FPS
    Count of elements           : 1023
    Stream size                 : 31.7 KiB (0%)
    Language                    : Spanish
    Default                     : Yes
    Forced                      : No

    Menu
    00:00:00.000                : en:Capítulo 01

  • Peso: 29.0 GiB

Sinopsis

Tras un enorme y misterioso accidente, un joven y talentoso arquitecto se despierta en un mundo muy distinto del que recordaba. Pronto descubre que su nueva realidad se basa en las memorias de aquellos que viven en él: gente que en la actualidad están en un coma profundo. La memoria humana es irregular, caótica e inestable, rasgos que comparte con «COMA», una colección de ciudades, glaciares y ríos, todos presentes en la misma habitación. En ella, todas las leyes de la física pueden romperse. El arquitecto debe encontrar la lógica intrínseca que rige COMA mientras pelea por su vida, buscando desesperadamente una salida que le permita regresar al mundo real.

 

Ruso: DTS-HD Master Audio 5.1

Ficha técnica

Video trailer de la película

Enlaces de descarga

Rip de Bluray

Descargar Coma (2019) REMUX 1080p SUB – CMHDD


Aportes de DPeliculasHDmega la pass es:dpeliculashdmega.org Aportes de CinemaniaHD la pass es:cinemaniahdd.com Aportes recientes:cinemaniahdd.net
Guardado en : Acción , Aventura , Ciencia ficción

Películas relacionadas

  • Combate clandestino (2024) AMZN WEB-DL 1080p Latino

    Combate clandestino (2024) AMZN WEB-DL 1080p Latino

    2024
    Combate clandestino (2024) AMZN WEB-DL 1080p Latino

    1h 30m 2024

    Descargar Combate clandestino (2024) AMZN WEB-DL 1080p Latino. Un ex soldado a la deriva se convierte...

    Director: Christian Sesma

    Género: Acción

    Actores: Tyler Wombles

  • ¡Patos! (2023) HD 1080p Latino

    ¡Patos! (2023) HD 1080p Latino

    2023
    ¡Patos! (2023) HD 1080p Latino

    1h 23m 2023

    Descargar ¡Patos! (2023) HD 1080p Latino. Después de que una familia de patos migratorios aterriza...

    Director: Guy-Laurent Homsy

    Género: Acción

    Actores: Zeno Robinson

  • ¡Patos! (2023) PLACEBO Full HD 1080p Latino

    ¡Patos! (2023) PLACEBO Full HD 1080p Latino

    2023
    ¡Patos! (2023) PLACEBO Full HD 1080p Latino

    1h 23m 2023

    Descargar ¡Patos! (2023) PLACEBO Full HD 1080p Latino. Después de que una familia de patos migratorios...

    Director: Guy-Laurent Homsy

    Género: Acción

    Actores: Zeno Robinson

  • ¡Patos! (2023) REMUX 1080p Latino

    ¡Patos! (2023) REMUX 1080p Latino

    2023
    ¡Patos! (2023) REMUX 1080p Latino

    1h 23m 2023

    Descargar ¡Patos! (2023) REMUX 1080p Latino. Después de que una familia de patos migratorios aterriza...

    Director: Guy-Laurent Homsy

    Género: Acción

    Actores: Zeno Robinson

descargar Coma (2019) REMUX 1080p SUB – CMHDD Full 1080p 1080p gratis, Coma (2019) REMUX 1080p SUB – CMHDD Full 1080p mega 1 link, Coma (2019) REMUX 1080p SUB – CMHDD Full 1080p pelicula completa, descargar Coma (2019) REMUX 1080p SUB – CMHDD Full 1080p gratis en mega.

Coma (2019) REMUX 1080p SUB – CMHDD pelicula full hd, Coma (2019) REMUX 1080p SUB – CMHDD mega latino, Coma (2019) REMUX 1080p SUB – CMHDD 4k latino, Coma (2019) REMUX 1080p SUB – CMHDD pelicula completa, Coma (2019) REMUX 1080p SUB – CMHDD descargar gratis, descargar Coma (2019) REMUX 1080p SUB – CMHDD pelicula latino, Coma (2019) REMUX 1080p SUB – CMHDD 1 link mega, Coma (2019) REMUX 1080p SUB – CMHDD 1 link google drive, Coma (2019) REMUX 1080p SUB – CMHDD hd 1080p latino.
Comentarios 0