×

¿Problemas para descargar con Mozilla, EDGE? Deshabilita la opción "Abrir vinculos en una pestaña nueva" tal como lo muestra ésta imagen.

Venganza Despiadada (2011) Full HD 1080p Latino

737 vistas

Información de Venganza Despiadada (2011) Full HD 1080p Latino

Datos de la película

  • Calidad: Full 1080p
  • Audio: Español Latino AC3 5.1 BLURAY - Ingles DTS 5.1 BLURAY
  • Subtitulos: Español Latino PGS - Ingles PGS
  • Resolución: 1920x1080p
  • Formato: MKV
  • Codec: H.264
  • Encoder: CinefiloCool
  • Mediainfo: Clic para Mostrar Datos Ver
  • Venganza Despiadada (2011) Full HD 1080p Latino-CMHDD.mkv
    Format                      : Matroska
    Format version              : Version 4
    File size                   : 9.45 GiB
    Duration                    : 1 h 51 min
    Overall bit rate            : 12.1 Mb/s
    Movie name                  : Colombiana (2011) CinemaniaHDD.Net
    Encoded date                : UTC 2022-03-25 05:28:37
    Writing application         : mkvmerge v56.1.0 ('My Friend') 64-bit
    Writing library             : libebml v1.4.2 + libmatroska v1.6.4
    Attachments                 : CINEMANIAHD.png

    Video
    ID                          : 1
    Format                      : AVC
    Format/Info                 : Advanced Video Codec
    Format profile              : High@L4.1
    Format settings             : CABAC / 4 Ref Frames
    Format settings, CABAC      : Yes
    Format settings, Reference  : 4 frames
    Codec ID                    : V_MPEG4/ISO/AVC
    Duration                    : 1 h 51 min
    Bit rate                    : 9 949 kb/s
    Width                       : 1 920 pixels
    Height                      : 1 080 pixels
    Display aspect ratio        : 16:9
    Frame rate mode             : Constant
    Frame rate                  : 23.976 (24000/1001) FPS
    Color space                 : YUV
    Chroma subsampling          : 4:2:0
    Bit depth                   : 8 bits
    Scan type                   : Progressive
    Bits/(Pixel*Frame)          : 0.200
    Stream size                 : 7.76 GiB (82%)
    Title                       : Full HD1080p [CinemaniaHDD]
    Writing library             : x264 core 163 r3059 b684ebe0
    Encoding settings           : cabac=1 / ref=4 / deblock=1:0:0 / analyse=0x3:0x133 / me=tesa / subme=11 / psy=1 / psy_rd=1.00:0.00 / mixed_ref=1 / me_range=24 / chroma_me=1 / trellis=2 / 8x8dct=1 / cqm=0 / deadzone=21,11 / fast_pskip=0 / chroma_qp_offset=-2 / threads=24 / lookahead_threads=6 / sliced_threads=0 / nr=0 / decimate=1 / interlaced=0 / bluray_compat=0 / constrained_intra=0 / bframes=16 / b_pyramid=2 / b_adapt=2 / b_bias=0 / direct=3 / weightb=1 / open_gop=0 / weightp=2 / keyint=240 / keyint_min=24 / scenecut=40 / intra_refresh=0 / rc_lookahead=60 / rc=crf / mbtree=1 / crf=20.0 / qcomp=0.60 / qpmin=0 / qpmax=69 / qpstep=4 / vbv_maxrate=62500 / vbv_bufsize=78125 / crf_max=0.0 / nal_hrd=none / filler=0 / ip_ratio=1.40 / aq=1:1.00
    Default                     : Yes
    Forced                      : Yes
    Color range                 : Limited
    Color primaries             : BT.709
    Transfer characteristics    : BT.709
    Matrix coefficients         : BT.709

    Audio #1
    ID                          : 2
    ID in the original source m : 4356 (0x1104)
    Format                      : AC-3
    Format/Info                 : Audio Coding 3
    Commercial name             : Dolby Digital
    Codec ID                    : A_AC3
    Duration                    : 1 h 51 min
    Bit rate mode               : Constant
    Bit rate                    : 640 kb/s
    Channel(s)                  : 6 channels
    Channel layout              : L R C LFE Ls Rs
    Sampling rate               : 48.0 kHz
    Frame rate                  : 31.250 FPS (1536 SPF)
    Compression mode            : Lossy
    Stream size                 : 511 MiB (5%)
    Title                       : Español Latino [CinemaniaHDD]
    Language                    : Spanish
    Service kind                : Complete Main
    Default                     : Yes
    Forced                      : Yes
    Original source medium      : Blu-ray

    Audio #2
    ID                          : 3
    Format                      : DTS
    Format/Info                 : Digital Theater Systems
    Codec ID                    : A_DTS
    Duration                    : 1 h 51 min
    Bit rate mode               : Constant
    Bit rate                    : 1 509 kb/s
    Channel(s)                  : 6 channels
    Channel layout              : C L R Ls Rs LFE
    Sampling rate               : 48.0 kHz
    Frame rate                  : 93.750 FPS (512 SPF)
    Bit depth                   : 24 bits
    Compression mode            : Lossy
    Stream size                 : 1.18 GiB (12%)
    Title                       : Ingles [CinemaniaHDD]
    Language                    : English
    Default                     : No
    Forced                      : No

    Text #1
    ID                          : 4
    ID in the original source m : 4612 (0x1204)
    Format                      : PGS
    Muxing mode                 : zlib
    Codec ID                    : S_HDMV/PGS
    Codec ID/Info               : Picture based subtitle format used on BDs/HD-DVDs
    Duration                    : 1 h 48 min
    Bit rate                    : 18.3 kb/s
    Count of elements           : 1766
    Stream size                 : 14.2 MiB (0%)
    Title                       : Español-PGS [CinemaniaHDD]
    Language                    : Spanish
    Default                     : No
    Forced                      : No
    Original source medium      : Blu-ray

    Text #2
    ID                          : 5
    ID in the original source m : 4609 (0x1201)
    Format                      : PGS
    Muxing mode                 : zlib
    Codec ID                    : S_HDMV/PGS
    Codec ID/Info               : Picture based subtitle format used on BDs/HD-DVDs
    Duration                    : 1 h 40 min
    Bit rate                    : 21.0 kb/s
    Count of elements           : 1732
    Stream size                 : 15.0 MiB (0%)
    Title                       : Ingles-PGS [CinemaniaHDD]
    Language                    : English
    Default                     : No
    Forced                      : No
    Original source medium      : Blu-ray

    Text #3
    ID                          : 6
    Format                      : UTF-8
    Codec ID                    : S_TEXT/UTF8
    Codec ID/Info               : UTF-8 Plain Text
    Duration                    : 1 h 13 min
    Bit rate                    : 0 b/s
    Count of elements           : 15
    Stream size                 : 346 Bytes (0%)
    Title                       : Forzados-SRT [CinemaniaHDD]
    Language                    : Spanish
    Default                     : Yes
    Forced                      : Yes

    Text #4
    ID                          : 7
    Format                      : UTF-8
    Codec ID                    : S_TEXT/UTF8
    Codec ID/Info               : UTF-8 Plain Text
    Duration                    : 1 h 40 min
    Bit rate                    : 35 b/s
    Count of elements           : 881
    Stream size                 : 26.0 KiB (0%)
    Title                       : Español-SRT [CinemaniaHDD]
    Language                    : Spanish
    Default                     : No
    Forced                      : No

    Menu
    00:00:00.000                : Chapter 01
    00:08:38.476                : Chapter 02
    00:17:51.779                : Chapter 03
    00:23:38.417                : Chapter 04
    00:31:22.297                : Chapter 05
    00:40:30.386                : Chapter 06
    00:46:35.501                : Chapter 07
    00:52:08.458                : Chapter 08
    00:57:15.682                : Chapter 09
    01:05:58.829                : Chapter 10
    01:12:38.729                : Chapter 11
    01:16:58.488                : Chapter 12
    01:23:26.459                : Chapter 13
    01:24:51.961                : Chapter 14
    01:32:01.307                : Chapter 15
    01:36:54.975                : Chapter 16

  • Peso: 9.45 GiB

Sinopsis

Descargar Venganza Despiadada (2011) Full HD 1080p Latino. Colombia, 1992. Cataleya, una niña de nueve años, tras presenciar el asesinato de sus padres, se entrena para convertirse en una asesina profesional. Después de escapar a duras penas de la masacre, se refugia en los Estados Unidos con Emilio, un tío suyo mafioso. Quince años después, ya trabaja para él como asesina a sueldo. Su tarjeta de visita -una orquídea dibujada en el pecho de sus víctimas- es un mensaje para los asesinos de sus padres, pues Cataleya está resuelta a vengarlos cueste lo que cueste, aunque para ello tenga que sacrificar todo lo que ama.

Ficha técnica

Video trailer de la película

Enlaces de descarga

Rip de Bluray

Descargar Venganza Despiadada (2011) Full HD 1080p Latino




Aportes de DPeliculasHDmega la pass es:dpeliculashdmega.org Aportes de CinemaniaHD la pass es:cinemaniahdd.com

Películas relacionadas

  • Blonde (2022) NF WEB-DL 1080p Latino

    Blonde (2022) NF WEB-DL 1080p Latino

    2022
    Blonde (2022) NF WEB-DL 1080p Latino

    2h 46m 2022

    Descargar Blonde (2022) NF WEB-DL 1080p Latino. Basada en el bestseller de la cinco veces finalista al...

    Director: Kristin Bree Calabrese

    Género: Drama

    Actores: Xavier Samuel

  • La Máquina infernal (2022) WEB-DL 1080p Latino

    La Máquina infernal (2022) WEB-DL 1080p Latino

    2022
    La Máquina infernal (2022) WEB-DL 1080p Latino

    1h 47m 2022

    Descargar La Máquina infernal (2022) WEB-DL 1080p Latino. Un fan obsesivo saca de su escondite al solitario...

    Director: Andrew Hunt

    Género: Suspenso

    Actores: Rocco Salata

  • Borrego: Sal Del Camino (2022) HD 1080p Latino

    Borrego: Sal Del Camino (2022) HD 1080p Latino

    2022
    Borrego: Sal Del Camino (2022) HD 1080p Latino

    1h 42m 2022

    Descargar Borrego: Sal Del Camino (2022) HD 1080p Latino. Una joven botánica se traslada a un pequeño...

    Director: Jesse Harris

    Género: Crimen

    Actores: Olivia Trujillo

  • Borrego: Sal Del Camino (2022) REMUX 1080p Latino

    Borrego: Sal Del Camino (2022) REMUX 1080p Latino

    2022
    Borrego: Sal Del Camino (2022) REMUX 1080p Latino

    1h 42m 2022

    Descargar Borrego: Sal Del Camino (2022) REMUX 1080p Latino. Una joven botánica se traslada a un pequeño...

    Director: Jesse Harris

    Género: Crimen

    Actores: Olivia Trujillo

descargar Venganza Despiadada (2011) Full HD 1080p Latino Full 1080p 1080p gratis, Venganza Despiadada (2011) Full HD 1080p Latino Full 1080p mega 1 link, Venganza Despiadada (2011) Full HD 1080p Latino Full 1080p pelicula completa, descargar Venganza Despiadada (2011) Full HD 1080p Latino Full 1080p gratis en mega.

Venganza Despiadada (2011) Full HD 1080p Latino pelicula full hd, Venganza Despiadada (2011) Full HD 1080p Latino mega latino, Venganza Despiadada (2011) Full HD 1080p Latino 4k latino, Venganza Despiadada (2011) Full HD 1080p Latino pelicula completa, Venganza Despiadada (2011) Full HD 1080p Latino descargar gratis, descargar Venganza Despiadada (2011) Full HD 1080p Latino pelicula latino, Venganza Despiadada (2011) Full HD 1080p Latino 1 link mega, Venganza Despiadada (2011) Full HD 1080p Latino 1 link google drive, Venganza Despiadada (2011) Full HD 1080p Latino hd 1080p latino.
Comentarios 0