×

¿Problemas para descargar con Mozilla, EDGE? Deshabilita la opción "Abrir vinculos en una pestaña nueva" tal como lo muestra ésta imagen.

Colombia Fue Nuestra (2020) AMZN WEB-DL 1080p Latino

195 vistas

Información de Colombia Fue Nuestra (2020) AMZN WEB-DL 1080p Latino

Datos de la película

  • Calidad:
  • Audio: Se especifica abajo de la Sinopsis
  • Subtitulos: Español Latino SRT - Ingles SRT
  • Resolución: 1920x1080
  • Formato: MKV
  • Codec: H.264
  • Encoder: cinemaniahdd
  • Mediainfo: Clic para Mostrar Datos Ver
  • Colombia Fue Nuestra (2020) AMZN WEB-DL 1080p Latino [CNMNHDD].mkv
    Format                      : Matroska
    Format version              : Version 4
    File size                   : 5.84 GiB
    Duration                    : 1 h 30 min
    Overall bit rate            : 9 233 kb/s
    Movie name                  : Colombia Fue Nuestra - CinemaniaHDD.Net
    Encoded date                : UTC 2020-11-11 05:02:52
    Writing application         : mkvmerge v51.0.0 ('I Wish') 64-bit
    Writing library             : libebml v1.4.0 + libmatroska v1.6.2

    Video
    ID                          : 1
    Format                      : AVC
    Format/Info                 : Advanced Video Codec
    Format profile              : High@L4
    Format settings             : CABAC / 4 Ref Frames
    Format settings, CABAC      : Yes
    Format settings, Reference  : 4 frames
    Codec ID                    : V_MPEG4/ISO/AVC
    Duration                    : 1 h 30 min
    Bit rate                    : 8 750 kb/s
    Width                       : 1 920 pixels
    Height                      : 1 080 pixels
    Display aspect ratio        : 16:9
    Frame rate mode             : Constant
    Frame rate                  : 25.000 FPS
    Color space                 : YUV
    Chroma subsampling          : 4:2:0
    Bit depth                   : 8 bits
    Scan type                   : Progressive
    Bits/(Pixel*Frame)          : 0.169
    Stream size                 : 5.54 GiB (95%)
    Title                       : CinemaniaHDD
    Language                    : Spanish
    Default                     : Yes
    Forced                      : No
    Color range                 : Limited
    Color primaries             : BT.709
    Transfer characteristics    : BT.709
    Matrix coefficients         : BT.709

    Audio #1
    ID                          : 2
    Format                      : AC-3
    Format/Info                 : Audio Coding 3
    Commercial name             : Dolby Digital
    Codec ID                    : A_AC3
    Duration                    : 1 h 30 min
    Bit rate mode               : Constant
    Bit rate                    : 256 kb/s
    Channel(s)                  : 2 channels
    Channel layout              : L R
    Sampling rate               : 48.0 kHz
    Frame rate                  : 31.250 FPS (1536 SPF)
    Compression mode            : Lossy
    Stream size                 : 166 MiB (3%)
    Title                       : Español latino - AC3 [CinemaniaHDD]
    Language                    : Spanish
    Service kind                : Complete Main
    Default                     : Yes
    Forced                      : No

    Audio #2
    ID                          : 3
    Format                      : E-AC-3
    Format/Info                 : Enhanced AC-3
    Commercial name             : Dolby Digital Plus
    Codec ID                    : A_EAC3
    Duration                    : 1 h 30 min
    Bit rate mode               : Constant
    Bit rate                    : 224 kb/s
    Channel(s)                  : 2 channels
    Channel layout              : L R
    Sampling rate               : 48.0 kHz
    Frame rate                  : 31.250 FPS (1536 SPF)
    Compression mode            : Lossy
    Stream size                 : 145 MiB (2%)
    Title                       : Español latino - E-AC3 [CinemaniaHDD]
    Language                    : Spanish
    Service kind                : Complete Main
    Default                     : No
    Forced                      : No

    Text #1
    ID                          : 4
    Format                      : UTF-8
    Codec ID                    : S_TEXT/UTF8
    Codec ID/Info               : UTF-8 Plain Text
    Duration                    : 1 h 25 min
    Bit rate                    : 58 b/s
    Count of elements           : 1005
    Stream size                 : 36.9 KiB (0%)
    Title                       : Español [CinemaniaHDD]
    Language                    : Spanish
    Default                     : No
    Forced                      : No

    Text #2
    ID                          : 5
    Format                      : UTF-8
    Codec ID                    : S_TEXT/UTF8
    Codec ID/Info               : UTF-8 Plain Text
    Duration                    : 1 h 28 min
    Bit rate                    : 48 b/s
    Count of elements           : 1027
    Stream size                 : 31.3 KiB (0%)
    Title                       : Inglés [CinemaniaHDD]
    Language                    : English
    Default                     : No
    Forced                      : No

     

  • Peso: 5.84 GiB

Sinopsis

Después de 52 años de conflicto armado, la guerrilla de las FARC está a punto de entregar sus armas en una acción destinada a beneficiar a los pobres. La sociedad está sumida en el caos. Algunos temen por sus vidas mientras que otros tienen la esperanza de un cambio. Esta película examina de cerca una oportunidad crucial para que un país mejore, pero ¿se respetará el acuerdo de paz?
Español Latino E-AC3 2.0 + AC3 WEB-DL

Ficha técnica

Video trailer de la película

Enlaces de descarga

Rip de Bluray

Descargar Colombia Fue Nuestra (2020) AMZN WEB-DL 1080p Latino




Aportes de DPeliculasHDmega la pass es:dpeliculashdmega.org Aportes de CinemaniaHD la pass es:cinemaniahdd.com
Guardado en : Documental

Películas relacionadas

  • WWE Evil (2022) Primera Temporada PCOK WEB-DL 1080p Latino

    WWE Evil (2022) Primera Temporada PCOK WEB-DL 1080p Latino

    2022
    WWE Evil (2022) Primera Temporada PCOK WEB-DL 1080p Latino

    0h 45m 2022

    Una "exposición psicológica" de las mentes de los antagonistas más diabólicos en la historia de la...

    Director: John Cena 約翰·希南 江西男,趙喜娜

    Género: Documental

    Actores: John Cena

  • Audrey (2020) HD 1080p Latino

    Audrey (2020) HD 1080p Latino

    2020
    Audrey (2020) HD 1080p Latino

    1h 30m 2020

    Descargar Audrey (2020) HD 1080p Latino. Documental sobre la icónica actriz Audrey Hepburn, una de las...

    Director: Helena Coan

    Género: Documental

    Actores: Sean Hepburn Ferrer

  • Audrey (2020) PLACEBO Full HD 1080p Latino

    Audrey (2020) PLACEBO Full HD 1080p Latino

    2020
    Audrey (2020) PLACEBO Full HD 1080p Latino

    1h 30m 2020

    Descargar Audrey (2020) PLACEBO Full HD 1080p Latino. Documental sobre la icónica actriz Audrey Hepburn,...

    Director: Helena Coan

    Género: Documental

    Actores: Sean Hepburn Ferrer

descargar Colombia Fue Nuestra (2020) AMZN WEB-DL 1080p Latino 1080p gratis, Colombia Fue Nuestra (2020) AMZN WEB-DL 1080p Latino mega 1 link, Colombia Fue Nuestra (2020) AMZN WEB-DL 1080p Latino pelicula completa, descargar Colombia Fue Nuestra (2020) AMZN WEB-DL 1080p Latino gratis en mega.

Colombia Fue Nuestra (2020) AMZN WEB-DL 1080p Latino pelicula full hd, Colombia Fue Nuestra (2020) AMZN WEB-DL 1080p Latino mega latino, Colombia Fue Nuestra (2020) AMZN WEB-DL 1080p Latino 4k latino, Colombia Fue Nuestra (2020) AMZN WEB-DL 1080p Latino pelicula completa, Colombia Fue Nuestra (2020) AMZN WEB-DL 1080p Latino descargar gratis, descargar Colombia Fue Nuestra (2020) AMZN WEB-DL 1080p Latino pelicula latino, Colombia Fue Nuestra (2020) AMZN WEB-DL 1080p Latino 1 link mega, Colombia Fue Nuestra (2020) AMZN WEB-DL 1080p Latino 1 link google drive, Colombia Fue Nuestra (2020) AMZN WEB-DL 1080p Latino hd 1080p latino.
Comentarios 0